<?xml version="1.0" standalone="no"?>
<!DOCTYPE svg PUBLIC "-//W3C//DTD SVG 1.1//EN" "http://www.w3.org/Graphics/SVG/1.1/DTD/svg11.dtd" >
<svg xmlns="http://www.w3.org/2000/svg" xmlns:xlink="http://www.w3.org/1999/xlink" version="1.1">
<metadata>
Created by FontForge 20170812 at Sat May 25 04:09:23 2019
 By www-data
Copyright (c) 2018 by Ivy Foundry. All rights reserved. |DCNT
</metadata>
<defs>
<font id="IvyMode-Italic" horiz-adv-x="0" >
  <font-face 
    font-family="Ivy Mode"
    font-weight="400"
    font-style="italic"
    font-stretch="normal"
    units-per-em="1000"
    panose-1="2 11 4 4 2 1 1 1 1 2"
    ascent="810"
    descent="-190"
    x-height="531"
    cap-height="728"
    bbox="-408 -277 1566.07 1040"
    underline-thickness="50"
    underline-position="-200"
    slope="-12"
    unicode-range="U+000D-FEFF"
  />
<missing-glyph horiz-adv-x="832" 
d="M117 728h632v-760h-632v760zM727 708h-588v-720h588v720z" />
    <glyph glyph-name="f_f" unicode="ff" horiz-adv-x="639" 
d="M820 768l-9 -12q-47 24 -99 24q-112 0 -143 -150l-21 -99h150l-17 -22h-138l-111 -519q-20 -92 -90.5 -148.5t-172.5 -69.5l-1 12q62 13 106.5 65.5t61.5 133.5l112 526h-211l-111 -519q-20 -92 -90.5 -148.5t-172.5 -69.5l-1 12q61 13 105.5 65.5t62.5 133.5l112 526
h-70l5 22h69l20 92q20 92 72.5 140.5t130.5 48.5q73 0 135 -41l-9 -12q-39 19 -90 19q-111 0 -143 -150l-21 -97h212l20 94q20 92 72.5 140.5t130.5 48.5q80 0 144 -46z" />
    <glyph glyph-name="f_f_i" unicode="ffi" horiz-adv-x="868" 
d="M822 531l40 11h4l-116 -542h-94l108 509h-221l-111 -519q-20 -92 -90.5 -148.5t-172.5 -69.5l-1 12q62 13 106.5 65.5t61.5 133.5l112 526h-211l-111 -519q-20 -92 -90.5 -148.5t-172.5 -69.5l-1 12q61 13 105.5 65.5t62.5 133.5l112 526h-70l5 22h69l20 92
q20 92 72.5 140.5t130.5 48.5q73 0 135 -41l-9 -12q-39 19 -90 19q-111 0 -143 -150l-21 -97h212l20 94q20 92 72.5 140.5t130.5 48.5q66 0 131 -39l-8 -13q-41 18 -87 18q-112 0 -143 -150l-21 -99h274zM840 626l-58 75l79 61l57 -75z" />
    <glyph glyph-name="f_i" unicode="fi" horiz-adv-x="561" 
d="M516 531l39 11h4l-115 -542h-95l109 509h-222l-110 -519q-20 -92 -90.5 -148.5t-172.5 -69.5l-1 12q61 13 105.5 65.5t62.5 133.5l112 526h-70l5 22h70l20 94q19 92 71.5 140.5t130.5 48.5q67 0 131 -39l-8 -13q-39 18 -86 18q-112 0 -144 -150l-21 -99h275zM533 626
l-57 75l78 61l58 -75z" />
    <glyph glyph-name="f_l" unicode="fl" horiz-adv-x="560" 
d="M611 810h4l-172 -810h-95l162 759q-47 21 -98 21q-118 0 -150 -150l-21 -99h142l-17 -22h-130l-110 -519q-20 -92 -90.5 -148.5t-172.5 -69.5l-1 12q61 13 105.5 65.5t62.5 133.5l112 526h-70l5 22h70l20 94q19 92 73 140.5t135 48.5q77 0 143 -41z" />
    <glyph glyph-name=".notdef" horiz-adv-x="832" 
d="M117 728h632v-760h-632v760zM727 708h-588v-720h588v720z" />
    <glyph glyph-name=".null" 
 />
    <glyph glyph-name="uni000D" unicode="&#xd;" horiz-adv-x="205" 
 />
    <glyph glyph-name="space" unicode=" " horiz-adv-x="205" 
 />
    <glyph glyph-name="exclam" unicode="!" horiz-adv-x="213" 
d="M86 209l64 519h106l-155 -519h-15zM50 -21l-60 77l82 64l60 -77z" />
    <glyph glyph-name="quotedbl" unicode="&#x22;" horiz-adv-x="289" 
d="M107 452l25 288h84l-99 -288h-10zM247 452l25 288h84l-99 -288h-10z" />
    <glyph glyph-name="numbersign" unicode="#" horiz-adv-x="534" 
d="M554 481h-107l-82 -234h100l-4 -18h-102l-80 -229h-21l80 229h-193l-80 -229h-21l80 229h-105l4 18h107l82 234h-100l4 18h102l80 229h21l-80 -229h193l80 229h21l-80 -229h105zM344 247l82 234h-193l-82 -234h193z" />
    <glyph glyph-name="dollar" unicode="$" horiz-adv-x="511" 
d="M391 708l-87 -286l24 -16q36 -23 73 -52q67 -56 67 -140q0 -97 -71 -161.5t-175 -64.5q-30 0 -49 4l-28 -93h-20l29 97q-97 19 -155 61l28 61q39 -70 133 -102l96 313l-26 17q-48 33 -69 50q-68 59 -68 140q0 88 66 146t164 58q23 0 56 -5l29 94h20l-30 -99
q71 -17 122 -57l-24 -55q-42 66 -105 90zM287 432l86 283q-26 9 -55 9q-65 0 -106.5 -41t-41.5 -101q0 -45 27.5 -77.5t88.5 -71.5zM272 319l-94 -309q26 -6 51 -6q71 0 117 45.5t46 111.5q0 36 -17 65q-16 27 -38 46t-65 47z" />
    <glyph glyph-name="percent" unicode="%" horiz-adv-x="724" 
d="M85 524q0 85 51 147.5t128 62.5q63 0 102 -39.5t39 -105.5q0 -85 -51 -147t-127 -62q-64 0 -103 39t-39 105zM89 0l562 728h25l-562 -728h-25zM346 613q0 51 -21 80t-59 29q-52 3 -87.5 -69t-34.5 -152q0 -51 21 -80t59 -29q52 -3 87.5 69t34.5 152zM359 139q0 85 51 147
t128 62q63 0 102 -39t39 -105q0 -85 -51 -147.5t-128 -62.5q-63 0 -102 39.5t-39 105.5zM620 227q0 51 -20.5 80t-58.5 29q-52 3 -87.5 -69t-34.5 -152q0 -51 20.5 -80t58.5 -29q52 -3 87.5 69t34.5 152z" />
    <glyph glyph-name="ampersand" unicode="&#x26;" horiz-adv-x="650" 
d="M624 450l-23 -121q-19 -104 -68 -180l64 -75l-21 -109h-5l-97 113q-96 -90 -236 -90q-96 0 -157.5 50.5t-61.5 128.5q0 77 52.5 136t141.5 87q-52 79 -52 151q0 84 58.5 141.5t141.5 57.5q66 0 112.5 -39t46.5 -98q0 -129 -179 -182l-9 11q124 58 124 178q0 51 -28 83.5
t-73 32.5q-56 0 -91.5 -45t-35.5 -99q0 -76 83 -174l212 -248q41 69 56 149q4 19 4 46q0 45 -14 79l51 16h4zM464 90l-203 237q-23 25 -41 52q-52 -31 -83.5 -85t-31.5 -113q0 -73 47 -120q46 -46 121 -46q110 0 191 75z" />
    <glyph glyph-name="quotesingle" unicode="'" horiz-adv-x="149" 
d="M107 452l25 288h84l-99 -288h-10z" />
    <glyph glyph-name="parenleft" unicode="(" horiz-adv-x="222" 
d="M24 129q0 173 74 350q75 175 203 303l12 -9q-112 -113 -181.5 -310.5t-68.5 -378.5q0 -147 52 -241l-13 -9q-78 135 -78 295z" />
    <glyph glyph-name="parenright" unicode=")" horiz-adv-x="222" 
d="M-61 -166l-12 9q112 113 181.5 310.5t68.5 378.5q0 147 -52 241l13 9q78 -135 78 -295q0 -175 -75 -350q-73 -174 -202 -303z" />
    <glyph glyph-name="asterisk" unicode="*" horiz-adv-x="454" 
d="M467 619l-177 -75l177 -75l-27 -46l-153 116l24 -191h-54l24 191l-153 -116l-27 46l177 75l-177 75l27 46l153 -116l-24 191h54l-24 -191l153 116z" />
    <glyph glyph-name="plus" unicode="+" horiz-adv-x="508" 
d="M478 374v-20h-193v-200h-22v200h-193v20h193v200h22v-200h193z" />
    <glyph glyph-name="comma" unicode="," horiz-adv-x="189" 
d="M-36 -143l-5 7q39 19 60.5 47t21.5 59q0 52 -56 89l64 62q30 -14 47.5 -39.5t17.5 -55.5q0 -52 -44 -99q-43 -46 -106 -70z" />
    <glyph glyph-name="hyphen" unicode="-" horiz-adv-x="294" 
d="M39 264l7 33h215l-7 -33h-215z" />
    <glyph glyph-name="period" unicode="." horiz-adv-x="185" 
d="M39 -21l-60 77l82 64l60 -77z" />
    <glyph glyph-name="slash" unicode="/" horiz-adv-x="371" 
d="M-44 -64l472 846h27l-472 -846h-27z" />
    <glyph glyph-name="zero" unicode="0" horiz-adv-x="639" 
d="M58 269q-2 116 39 224.5t119 179t173 67.5q107 0 170 -75t63 -207q2 -116 -38.5 -224.5t-118.5 -178.5t-174 -67q-106 0 -169.5 75t-63.5 206zM524 510q0 103 -33.5 159.5t-97.5 56.5q-71 0 -125 -82q-54 -85 -82 -202q-29 -121 -29 -224q0 -104 33 -160t98 -56
q72 0 124 82q55 84 83 201q29 122 29 225z" />
    <glyph glyph-name="one" unicode="1" horiz-adv-x="288" 
d="M312 740h4l-158 -740h-92l131 615q-53 -29 -119 -45l2 12q61 18 125 61q66 45 107 97z" />
    <glyph glyph-name="two" unicode="2" horiz-adv-x="501" 
d="M65 69h69q100 0 159 4q51 3 142 16l-43 -89h-421l1 4l66 60q120 108 203 195q166 173 166 305q0 60 -32.5 94.5t-88.5 34.5q-102 0 -183 -113l-13 6q39 62 94 107q59 47 142 47q82 0 133.5 -45.5t51.5 -123.5q0 -75 -52 -151q-53 -76 -142 -153q-93 -80 -244 -192z" />
    <glyph glyph-name="three" unicode="3" horiz-adv-x="492" 
d="M-13 47l24 58q62 -101 158 -101q78 0 130.5 55.5t52.5 134.5q0 73 -47 121.5t-124 59.5l-2 12l33 9q75 20 124 73q51 55 51 122q0 49 -29.5 76t-80.5 27q-93 0 -164 -79l-12 6q94 119 217 119q74 0 121 -37.5t47 -98.5q0 -66 -55 -120t-127 -73v-2q56 -18 96 -67t40 -119
q0 -98 -78 -166.5t-190 -68.5q-93 0 -185 59z" />
    <glyph glyph-name="four" unicode="4" horiz-adv-x="518" 
d="M495 733l-100 -473h100l-29 -62h-84l-42 -198h-93l42 198h-289l-4 31l478 504h21zM52 260h250l72 341z" />
    <glyph glyph-name="five" unicode="5" horiz-adv-x="472" 
d="M473 657h-291l-50 -180q141 -10 219 -72.5t78 -165.5q0 -112 -76.5 -182t-190.5 -70q-93 0 -179 57l22 48q58 -88 156 -88q81 0 132 55.5t51 141.5q0 85 -68 136t-187 57l92 334h328z" />
    <glyph glyph-name="six" unicode="6" horiz-adv-x="543" 
d="M41 220q-2 115 58 228t162 191.5t218 100.5l2 -15q-100 -25 -180 -112t-121.5 -203t-39.5 -235q0 -83 30.5 -128t84.5 -45q46 -2 84 39.5t56.5 102t17.5 121.5q0 68 -29.5 105t-82.5 37q-45 0 -89 -32l-9 13q61 52 137 52t125 -52t49 -133q2 -109 -76 -189t-184 -78
q-98 0 -155.5 62t-57.5 170z" />
    <glyph glyph-name="seven" unicode="7" horiz-adv-x="460" 
d="M121 728h425v-4l-401 -724h-94l437 657h-110q-190 0 -295 -24z" />
    <glyph glyph-name="eight" unicode="8" horiz-adv-x="534" 
d="M478 203q2 -90 -72.5 -153.5t-175.5 -61.5q-87 0 -147.5 45.5t-60.5 121.5t55 132q56 58 141 80q-98 69 -98 167q0 88 64 147t156 59q75 0 127.5 -43.5t52.5 -109.5t-50 -118q-49 -51 -125 -75q63 -37 98 -82t35 -109zM197 570q0 -49 26.5 -83t76.5 -65l30 -18
q55 33 88 86t33 112q0 55 -31 89.5t-82 34.5q-61 0 -101 -46.5t-40 -109.5zM401 166q0 41 -19 70q-11 19 -27 34.5t-27.5 24.5t-38.5 26l-41 26l-18 11q-64 -32 -101 -89.5t-37 -123.5q0 -65 39 -104t101 -39q70 0 119.5 48.5t49.5 115.5z" />
    <glyph glyph-name="nine" unicode="9" horiz-adv-x="543" 
d="M106 -12l-2 15q100 25 180 112t121.5 203t39.5 235q0 83 -30.5 128t-84.5 45q-46 2 -84 -39.5t-56.5 -102t-17.5 -121.5q0 -68 29.5 -105t82.5 -37q45 0 89 32l9 -13q-61 -52 -137 -52t-125 52t-49 133q-2 109 76 189t184 78q98 0 155.5 -62t57.5 -170q2 -115 -58 -228
t-162 -191.5t-218 -100.5z" />
    <glyph glyph-name="colon" unicode=":" horiz-adv-x="235" 
d="M62 -21l-60 77l82 64l60 -77zM142 372l-60 77l82 64l60 -77z" />
    <glyph glyph-name="semicolon" unicode=";" horiz-adv-x="236" 
d="M-15 -143l-5 7q39 19 60.5 47t21.5 59q0 52 -56 89l64 62q30 -14 47.5 -39.5t17.5 -55.5q0 -52 -44 -99q-43 -46 -106 -70zM145 372l-60 77l82 64l60 -77z" />
    <glyph glyph-name="less" unicode="&#x3c;" horiz-adv-x="508" 
d="M457 544l-379 -180l379 -180l-10 -18l-398 189v18l398 189z" />
    <glyph glyph-name="equal" unicode="=" horiz-adv-x="508" 
d="M68 426v20h408v-20h-408zM68 282v20h408v-20h-408z" />
    <glyph glyph-name="greater" unicode="&#x3e;" horiz-adv-x="508" 
d="M97 562l398 -189v-18l-398 -189l-10 18l379 180l-379 180z" />
    <glyph glyph-name="question" unicode="?" horiz-adv-x="469" 
d="M173 266q0 32 20.5 58.5t74.5 71.5q40 35 65 59q60 64 60 134q0 51 -33.5 81t-90.5 30q-83 0 -160 -72l-10 9q96 103 216 103q81 0 131 -41q51 -41 51 -106q0 -50 -26 -91q-24 -37 -57.5 -63.5t-98.5 -67.5q-63 -39 -87.5 -62.5t-24.5 -49.5q0 -17 13 -26.5t32 -9.5
q11 0 23 3l1 -14q-13 -3 -25 -3q-33 0 -53.5 15.5t-20.5 41.5zM187 -21l-60 77l82 64l60 -77z" />
    <glyph glyph-name="at" unicode="@" horiz-adv-x="805" 
d="M497 211v3q-63 -86 -140 -86q-50 0 -82 32t-32 90q-1 66 34 132.5t95 108.5t123 40q71 0 107 -44l58 40h5l-87 -236q-22 -60 -22 -91q0 -43 44 -43q48 -2 92 41t68.5 108t23.5 127q2 124 -80.5 208.5t-209.5 82.5q-108 3 -206 -65.5t-154.5 -179t-54.5 -227.5
q-2 -144 88 -238.5t231 -92.5q118 0 212 63l8 -13q-100 -66 -226 -66q-153 -2 -254 97.5t-99 249.5q-3 123 61 237.5t172 184t226 66.5q140 2 231 -86.5t89 -218.5q2 -115 -67 -207.5t-162 -89.5q-92 0 -92 73zM501 244q4 20 15 52l59 161q-24 58 -78 58q-46 2 -90 -40.5
t-69 -104.5t-24 -119q0 -46 19 -70t53 -24q61 0 115 87z" />
    <glyph glyph-name="A" unicode="A" horiz-adv-x="576" 
d="M413 0l-38 239h-260q-81 -148 -104 -239h-68q45 67 108 172l77 128l11 19l251 425h3l124 -744h-104zM125 257h247l-53 329l-162 -274z" />
    <glyph glyph-name="B" unicode="B" horiz-adv-x="616" 
d="M572 221q0 -104 -91.5 -162.5t-238.5 -58.5h-227l154 728h210q107 0 166.5 -39.5t59.5 -108.5q0 -80 -62.5 -134.5t-144.5 -65.5v-2q80 -12 127 -53.5t47 -103.5zM361 712h-93l-70 -329h133q75 0 121.5 58t46.5 140q0 60 -35 95.5t-103 35.5zM458 226q0 67 -39.5 104
t-108.5 37h-115l-72 -340q36 -11 100 -11q110 0 172.5 57t62.5 153z" />
    <glyph glyph-name="C" unicode="C" horiz-adv-x="664" 
d="M56 300q-1 116 48.5 218t139.5 163t198 59q83 0 150 -37t107 -102l-56 -41q-28 76 -79 120t-118 44q-82 0 -146 -63q-64 -61 -99 -160t-35 -198q0 -126 61 -199t164 -73q136 0 231 118l12 -8q-118 -153 -285 -153q-130 0 -211.5 86t-81.5 226z" />
    <glyph glyph-name="D" unicode="D" horiz-adv-x="719" 
d="M709 458q3 -200 -126.5 -330t-328.5 -128h-239l155 728h235q138 0 221 -72.5t83 -197.5zM601 472q0 111 -55.5 175.5t-154.5 64.5h-122l-146 -687q36 -9 141 -9q97 -2 176.5 64t121 170.5t39.5 221.5z" />
    <glyph glyph-name="E" unicode="E" horiz-adv-x="514" 
d="M170 728h395l-1 -63h-2q-116 45 -244 45h-50l-68 -322h43q146 0 197 20h1l-12 -62h-2q-50 24 -188 24h-43l-74 -352h51q149 0 280 49h2l-32 -67h-408z" />
    <glyph glyph-name="F" unicode="F" horiz-adv-x="476" 
d="M170 728h381l-1 -63h-2q-116 45 -245 45h-35l-71 -334h34q147 0 198 20h2l-13 -62h-2q-50 24 -189 24h-34l-76 -358h-102z" />
    <glyph glyph-name="G" unicode="G" horiz-adv-x="716" 
d="M441 312l-10 18h260l-57 -270q-116 -72 -247 -72q-152 0 -242 82t-90 224q-2 118 49.5 221.5t145.5 165t206 59.5q175 0 263 -139l-55 -42q-29 77 -81.5 121t-123.5 44q-84 3 -154.5 -65t-107.5 -171.5t-35 -211.5q0 -123 59 -197t166 -74q81 0 149 43l56 264h-151z" />
    <glyph glyph-name="H" unicode="H" horiz-adv-x="668" 
d="M593 728h102l-154 -728h-102l78 370h-322l-78 -370h-102l154 728h102l-72 -340h322z" />
    <glyph glyph-name="I" unicode="I" horiz-adv-x="245" 
d="M15 0l154 728h102l-154 -728h-102z" />
    <glyph glyph-name="J" unicode="J" horiz-adv-x="247" 
d="M-141 -150l-6 12q68 39 110 87q39 46 60 107q20 53 44 164l108 508h102l-106 -500q-26 -121 -65 -189q-38 -69 -96 -110q-53 -38 -151 -79z" />
    <glyph glyph-name="K" unicode="K" horiz-adv-x="604" 
d="M170 728h102l-155 -728h-102zM435 522l-35 -29l-87 -74l241 -319l-26 -122h-6l-295 395l161 136q149 125 221 219h79v-2q-52 -38 -112 -87q-56 -43 -141 -117z" />
    <glyph glyph-name="L" unicode="L" horiz-adv-x="434" 
d="M382 75h2l-35 -75h-334l155 728h102l-151 -710h18q108 0 243 57z" />
    <glyph glyph-name="M" unicode="M" horiz-adv-x="812" 
d="M710 728h91l-89 -728h-102l82 659l-358 -613h-4l-123 592l-96 -319q-57 -186 -72 -319h-60q44 100 112 320l108 358l-10 47v3h106l108 -526z" />
    <glyph glyph-name="N" unicode="N" horiz-adv-x="615" 
d="M599 728h60q-46 -122 -88 -318l-90 -422h-10l-291 639l-66 -309q-42 -195 -48 -318h-60q45 121 88 318l72 339l-31 68l1 3h107l254 -570l54 252q42 195 48 318z" />
    <glyph glyph-name="O" unicode="O" horiz-adv-x="785" 
d="M55 301q-2 116 51 218t147 162.5t204 58.5q139 0 226.5 -85.5t87.5 -227.5q2 -115 -50.5 -217t-146.5 -163t-205 -59q-139 0 -226.5 86t-87.5 227zM664 458q0 121 -55.5 193.5t-150.5 72.5q-64 2 -120.5 -38t-94 -105.5t-59.5 -147.5t-21 -163q0 -122 55.5 -194
t151.5 -72q83 -3 152.5 66t106 174t35.5 214z" />
    <glyph glyph-name="P" unicode="P" horiz-adv-x="548" 
d="M576 552q0 -112 -81.5 -180t-214.5 -68q-47 0 -97 8l-66 -312h-102l154 728h158q124 0 186.5 -45.5t62.5 -130.5zM470 558q0 78 -38 116t-125 38h-39l-82 -382q36 -10 79 -10q95 0 150 69t55 169z" />
    <glyph glyph-name="Q" unicode="Q" horiz-adv-x="785" 
d="M802 -114v-4q-69 -32 -150 -32q-91 0 -167.5 37t-121.5 101q-137 2 -222.5 88t-85.5 225q-2 116 51 218t147 162.5t204 58.5q139 0 226.5 -85.5t87.5 -227.5q2 -148 -83 -269.5t-217 -155.5q55 -66 110.5 -95.5t131.5 -29.5q43 0 89 9zM370 4q83 -3 152.5 66t106 174
t35.5 214q0 121 -55.5 193.5t-150.5 72.5q-64 2 -120.5 -38t-94 -105.5t-59.5 -147.5t-21 -163q0 -122 55.5 -194t151.5 -72z" />
    <glyph glyph-name="R" unicode="R" horiz-adv-x="593" 
d="M374 349l158 -251l-25 -120h-6l-208 330q-14 21 -44 21h-61l-71 -329h-102l155 728h161q124 0 189.5 -43t65.5 -119q0 -84 -57 -138.5t-155 -78.5zM485 569q0 143 -166 143h-50l-77 -361q29 -6 77 -6q87 0 151.5 64t64.5 160z" />
    <glyph glyph-name="S" unicode="S" horiz-adv-x="514" 
d="M2 57l28 61q27 -49 85 -82q59 -32 118 -32q70 0 116.5 44.5t46.5 110.5q0 35 -18 64q-17 29 -36 44l-67 51l-42 30l-48 33q-89 65 -89 158q0 87 65.5 144t164.5 57q57 0 111 -21q55 -21 86 -46l-24 -55q-71 106 -178 106q-65 0 -106.5 -39.5t-41.5 -100.5q0 -33 16 -58
q10 -17 25.5 -32t27.5 -24.5t48 -35.5l42 -30q46 -32 75 -56q65 -55 65 -137q0 -96 -71 -159.5t-175 -63.5q-60 0 -123 22q-68 24 -101 47z" />
    <glyph glyph-name="T" unicode="T" horiz-adv-x="530" 
d="M119 728h487l-2 -71h-2q-97 53 -172 53h-21l-150 -710h-102l150 710h-20q-74 0 -194 -53h-2z" />
    <glyph glyph-name="U" unicode="U" horiz-adv-x="627" 
d="M56 187q0 37 9 79l98 462h102l-99 -464q-9 -45 -9 -82q0 -79 39.5 -121.5t114.5 -42.5q171 0 220 229l35 163q40 194 48 318h60q-48 -129 -88 -318l-34 -158q-28 -133 -95.5 -198.5t-181.5 -65.5q-105 0 -162 52t-57 147z" />
    <glyph glyph-name="V" unicode="V" horiz-adv-x="578" 
d="M609 728h68q-59 -88 -197 -319l-251 -425h-4l-123 744h103l94 -586l162 275q65 108 101 185q33 72 47 126z" />
    <glyph glyph-name="W" unicode="W" horiz-adv-x="871" 
d="M905 728h59q-62 -107 -177 -319l-228 -425h-3l-62 561l-304 -561h-4l-82 744h103l59 -562l304 562h4l62 -560l132 247q100 189 137 313z" />
    <glyph glyph-name="X" unicode="X" horiz-adv-x="577" 
d="M410 464l-42 -48l154 -295l-30 -143h-6l-193 367l-80 -91q-123 -144 -167 -254h-100q114 106 253 265l84 98l-192 365h114l153 -294l36 41q152 176 187 253h76q-104 -98 -247 -264z" />
    <glyph glyph-name="Y" unicode="Y" horiz-adv-x="554" 
d="M418 431l-79 -107l-69 -324h-102l69 328l-127 400h107l117 -380l69 93q125 170 177 287h60q-118 -154 -222 -297z" />
    <glyph glyph-name="Z" unicode="Z" horiz-adv-x="513" 
d="M595 728l-1 -4l-509 -706h61q97 0 171 11q69 10 140 38h1l-32 -67h-474l1 4l510 706h-47q-187 0 -303 -45h-2l25 63h459z" />
    <glyph glyph-name="bracketleft" unicode="[" horiz-adv-x="226" 
d="M120 308q-50 -231 -117 -462h135l-3 -12h-160l202 948h160l-3 -12h-136q-32 -249 -78 -462z" />
    <glyph glyph-name="backslash" unicode="\" horiz-adv-x="357" 
d="M242 -64l-112 846h24l112 -846h-24z" />
    <glyph glyph-name="bracketright" unicode="]" horiz-adv-x="226" 
d="M108 782h160l-202 -948h-160l3 12h136q31 249 78 462q49 231 117 462h-135z" />
    <glyph glyph-name="asciicircum" unicode="^" horiz-adv-x="508" 
d="M494 358l-18 -10l-197 354l-197 -354l-18 10l213 382h4z" />
    <glyph glyph-name="underscore" unicode="_" horiz-adv-x="377" 
d="M-76 -86l4 22h380l-4 -22h-380z" />
    <glyph glyph-name="grave" unicode="`" horiz-adv-x="600" 
d="M300 606l-132 179h105l35 -174z" />
    <glyph glyph-name="a" unicode="a" horiz-adv-x="574" 
d="M456 54q0 -17 9 -24.5t32 -7.5q1 0 19 2l-2 -6q-44 -25 -87 -25q-63 0 -63 64q0 17 4 37l26 121h-8q-94 -227 -240 -227q-65 0 -97.5 43t-32.5 120q0 87 41 180q42 92 116 152q73 60 164 60q90 0 142 -61l75 60h4l-95 -444q-7 -29 -7 -44zM440 431q-13 45 -40.5 70
t-65.5 25q-62 0 -111 -61q-51 -62 -79 -147q-29 -89 -29 -159q0 -56 19 -90.5t56 -34.5q65 0 136 108.5t114 288.5z" />
    <glyph glyph-name="b" unicode="b" horiz-adv-x="557" 
d="M541 380q0 -90 -42 -182q-41 -90 -116 -151q-74 -59 -164 -59q-95 0 -146 70l-69 -62h-4l166 784l97 30h4l-105 -494h9q94 227 239 227q65 0 98 -43t33 -120zM442 372q0 56 -19.5 90.5t-55.5 34.5q-66 0 -137.5 -108.5t-113.5 -289.5q13 -45 40.5 -70t66.5 -25
q61 0 111 60q51 64 79 148q29 90 29 160z" />
    <glyph glyph-name="c" unicode="c" horiz-adv-x="480" 
d="M21 191q-2 87 40.5 169.5t115.5 133.5t152 49q123 0 167 -101l-45 -34q-19 63 -45 91.5t-71 28.5q-56 3 -106.5 -52t-78 -134t-26.5 -152q0 -75 34.5 -117t93.5 -42q44 0 91.5 24t84.5 68l10 -8q-106 -127 -227 -127q-85 0 -137.5 55.5t-52.5 147.5z" />
    <glyph glyph-name="d" unicode="d" horiz-adv-x="557" 
d="M611 810h4l-172 -810h-94l45 215h-8q-94 -227 -240 -227q-65 0 -97.5 43t-32.5 120q0 87 41 180q42 92 116 152q73 60 164 60q74 0 118 -40l59 277zM440 431q-13 45 -40.5 70t-65.5 25q-62 0 -111 -61q-51 -62 -79 -147q-29 -89 -29 -159q0 -56 19 -90.5t56 -34.5
q65 0 136 108.5t114 288.5z" />
    <glyph glyph-name="e" unicode="e" horiz-adv-x="478" 
d="M124 230q-2 -34 -2 -37q0 -77 30.5 -119.5t82.5 -42.5q93 0 178 96l11 -7q-108 -132 -233 -132q-76 0 -122.5 52.5t-46.5 146.5q-2 89 39 171.5t115.5 134.5t160.5 50q67 0 106.5 -27t39.5 -73q0 -73 -102 -127q-102 -55 -257 -86zM126 245q114 30 195 84q82 55 82 126
q0 33 -18 53t-51 20q-75 3 -135 -86t-73 -197z" />
    <glyph glyph-name="f" unicode="f" horiz-adv-x="333" 
d="M513 768l-9 -12q-46 24 -98 24q-112 0 -144 -150l-21 -99h150l-17 -22h-138l-110 -519q-20 -92 -90.5 -148.5t-172.5 -69.5l-1 12q61 13 105.5 65.5t62.5 133.5l112 526h-70l5 22h70l20 94q19 92 71.5 140.5t130.5 48.5q83 0 144 -46z" />
    <glyph glyph-name="g" unicode="g" horiz-adv-x="496" 
d="M553 575l-26 -80q-33 11 -53 11q-39 0 -60 -18q43 -46 43 -112q0 -76 -55 -128t-137 -70l-32 -7q-73 -16 -99.5 -26t-26.5 -27q0 -11 13 -17.5t45 -13.5l117 -25q140 -32 140 -122q2 -69 -80 -125t-189 -55q-90 0 -150.5 38.5t-60.5 99.5q0 43 31 89l55 12h4
q-32 -56 -32 -104q0 -57 42 -88t115 -31q82 0 141 37.5t59 85.5q0 62 -108 86l-127 30q-48 12 -71 27.5t-23 40.5q0 35 42 56.5t129 38.5q-66 11 -106.5 55t-40.5 107q0 84 65 143.5t155 59.5q81 0 133 -46q61 78 148 78zM370 405q0 57 -24.5 89.5t-68.5 32.5
q-61 0 -99.5 -66t-38.5 -150q0 -56 24.5 -88t68.5 -32q61 0 99.5 66t38.5 148z" />
    <glyph glyph-name="h" unicode="h" horiz-adv-x="548" 
d="M520 418q0 -28 -8 -71l-75 -347h-94l76 355q7 29 7 62q0 80 -60 80q-72 0 -144 -122.5t-127 -374.5h-94l165 780l97 30h4l-109 -512h9q97 245 241 245q112 0 112 -125z" />
    <glyph glyph-name="i" unicode="i" horiz-adv-x="215" 
d="M187 626l-57 75l78 61l58 -75zM3 0l110 515l96 27h4l-115 -542h-95z" />
    <glyph glyph-name="j" unicode="j" horiz-adv-x="220" 
d="M191 626l-57 75l79 61l57 -75zM-163 -228l-1 12q62 13 106.5 65.5t61.5 133.5l113 532l97 27h4l-118 -552q-20 -92 -90.5 -148.5t-172.5 -69.5z" />
    <glyph glyph-name="k" unicode="k" horiz-adv-x="489" 
d="M263 810h4l-172 -810h-94l165 780zM292 360l-26 -20l173 -242l-25 -120h-5l-225 322l97 76q70 56 112 91q36 29 71 64h66v-2q-61 -37 -112 -74q-44 -32 -126 -95z" />
    <glyph glyph-name="l" unicode="l" horiz-adv-x="215" 
d="M3 0l166 780l97 30h4l-172 -810h-95z" />
    <glyph glyph-name="m" unicode="m" horiz-adv-x="872" 
d="M845 419q0 -33 -9 -72l-74 -347h-95l76 355q8 37 8 62q0 80 -61 80q-72 0 -140 -123t-122 -374h-94l76 355q7 35 7 61q0 81 -61 81q-72 0 -139.5 -122.5t-120.5 -371.5l-1 -3h-95l110 515l97 27h4l-52 -244h6q48 126 105 185.5t129 59.5q112 0 112 -125q0 -28 -8 -71
l-11 -49h6q48 127 105 186t130 59q112 0 112 -124z" />
    <glyph glyph-name="n" unicode="n" horiz-adv-x="548" 
d="M520 419q0 -33 -9 -72l-74 -347h-95l76 355q8 37 8 62q0 80 -61 80q-72 0 -144 -122t-125 -373l-1 -2h-95l110 515l97 27h4l-52 -244h8q94 245 241 245q112 0 112 -124z" />
    <glyph glyph-name="o" unicode="o" horiz-adv-x="554" 
d="M26 211q-3 131 86 233t207 99q96 0 151 -61q57 -60 57 -162q2 -132 -86 -233.5t-206 -98.5q-95 0 -152 60q-57 62 -57 163zM427 354q0 80 -28 127.5t-78 47.5q-74 4 -135 -113t-59 -240q0 -80 27.5 -127t77.5 -47q52 0 97 53q46 55 71 136q27 83 27 163z" />
    <glyph glyph-name="p" unicode="p" horiz-adv-x="557" 
d="M541 380q0 -90 -42 -182q-41 -90 -116 -151q-74 -59 -164 -59q-73 0 -119 40l-54 -256h-94l158 743l96 27h4l-48 -226h9q94 227 239 227q65 0 98 -43t33 -120zM442 372q0 56 -19.5 90.5t-55.5 34.5q-66 0 -137.5 -108.5t-113.5 -289.5q13 -45 40.5 -70t66.5 -25
q61 0 111 60q51 64 79 148q29 90 29 160z" />
    <glyph glyph-name="q" unicode="q" horiz-adv-x="557" 
d="M553 542h5l-164 -770h-94l94 443h-8q-94 -227 -240 -227q-65 0 -97.5 43t-32.5 120q0 87 41 180q42 92 116 152q73 60 164 60q90 0 142 -61zM440 431q-13 45 -40.5 70t-65.5 25q-62 0 -111 -61q-51 -62 -79 -147q-29 -89 -29 -159q0 -56 19 -90.5t56 -34.5
q65 0 136 108.5t114 288.5z" />
    <glyph glyph-name="r" unicode="r" horiz-adv-x="361" 
d="M409 536l-42 -75q-20 11 -42 11q-53 0 -116 -117.5t-114 -354.5h-95l110 515l97 27h4l-52 -244h6q89 243 207 243q15 0 37 -5z" />
    <glyph glyph-name="s" unicode="s" horiz-adv-x="400" 
d="M-16 49l22 50q24 -43 67 -70t93 -27q53 0 87 30t34 76q0 36 -20 59.5t-69 53.5l-34 22q-54 34 -80 67t-26 81q0 68 48 110q50 42 125 42q46 0 91 -15.5t74 -37.5l-20 -46q-27 37 -66 61t-82 24q-45 0 -74.5 -27.5t-29.5 -67.5q3 -39 20.5 -58.5t66.5 -50.5l34 -22
q38 -24 56.5 -39.5t34 -44.5t16.5 -68q0 -72 -52.5 -117.5t-133.5 -45.5q-49 0 -100 17t-82 44z" />
    <glyph glyph-name="t" unicode="t" horiz-adv-x="344" 
d="M231 509l-80 -382q-6 -26 -6 -50q0 -47 37 -47q43 0 124 81l11 -10q-97 -113 -182 -113q-86 0 -86 87q0 25 6 50l82 384h-70l3 17l68 5l131 170h4l-37 -170h158l-18 -22h-145z" />
    <glyph glyph-name="u" unicode="u" horiz-adv-x="546" 
d="M543 542h4l-115 -542h-94l49 233h-8q-97 -245 -246 -245q-108 0 -108 120q0 34 9 76l71 331l96 27h4l-78 -367q-8 -40 -8 -66q0 -75 57 -75q73 0 146.5 118t124.5 363z" />
    <glyph glyph-name="v" unicode="v" horiz-adv-x="452" 
d="M450 531h58q-62 -91 -189 -300l-150 -246h-6l-102 546h96l75 -408l71 116q119 197 147 292z" />
    <glyph glyph-name="w" unicode="w" horiz-adv-x="701" 
d="M697 531h57q-55 -86 -181 -305l-138 -241h-6l-53 391l-222 -391h-6l-86 546h94l61 -398l225 398h6l53 -395l55 98q108 188 141 297z" />
    <glyph glyph-name="x" unicode="x" horiz-adv-x="425" 
d="M295 350l-30 -35l104 -206l-27 -131h-5l-139 274l-65 -76q-87 -102 -110 -176h-81q66 59 176 187l72 82l-133 262h99l101 -199l23 27q96 108 125 172h61q-70 -66 -171 -181z" />
    <glyph glyph-name="y" unicode="y" horiz-adv-x="450" 
d="M444 531h59q-51 -78 -182 -297l-189 -318q-53 -88 -105.5 -119t-125.5 -31l17 57q18 -7 44 -7q40 0 80.5 26t69.5 76l49 81l-102 532h96l78 -410l71 120q107 178 140 290z" />
    <glyph glyph-name="z" unicode="z" horiz-adv-x="407" 
d="M445 531l-1 -4l-370 -512h42q123 0 231 28h3l-19 -43h-375l1 4l372 512h-39q-117 0 -221 -26h-3l17 41h362z" />
    <glyph glyph-name="braceleft" unicode="{" horiz-adv-x="272" 
d="M378 782l-3 -12q-83 0 -123 -37.5t-40 -116.5q0 -33 7 -71q6 -47 6 -67q0 -67 -46 -113q-47 -47 -115 -57q46 -9 74.5 -37.5t28.5 -69.5q0 -27 -10.5 -53t-39.5 -79q-30 -52 -41.5 -81.5t-11.5 -59.5q0 -82 115 -82l-3 -12q-94 0 -137.5 25t-43.5 80q0 58 60 158
q50 86 50 125q0 34 -21 56t-59 24l2 12q54 2 89.5 41t35.5 96q0 30 -7 68q-8 56 -8 79q0 99 59 141.5t182 42.5z" />
    <glyph glyph-name="bar" unicode="|" horiz-adv-x="158" 
d="M-3 -64l180 846h24l-180 -846h-24z" />
    <glyph glyph-name="braceright" unicode="}" horiz-adv-x="272" 
d="M265 314l-2 -12q-54 -2 -89.5 -41t-35.5 -96q0 -30 7 -68q8 -56 8 -79q0 -99 -59 -141.5t-182 -42.5l3 12q83 0 123 37.5t40 116.5q0 33 -7 71q-6 46 -6 67q0 67 46 113q47 47 115 57q-46 9 -74.5 37.5t-28.5 69.5q0 27 10.5 53t39.5 79q30 52 41.5 81.5t11.5 59.5
q0 82 -115 82l3 12q94 0 137.5 -25t43.5 -80q0 -58 -60 -158q-50 -86 -50 -125q0 -34 21 -56t59 -24z" />
    <glyph glyph-name="asciitilde" unicode="~" horiz-adv-x="514" 
d="M72 309l-12 3q21 60 50.5 89t73.5 29q42 0 115 -42q66 -37 98 -37q55 0 91 80l12 -3q-22 -61 -51 -89.5t-73 -28.5t-115 42q-66 37 -98 37q-55 0 -91 -80z" />
    <glyph glyph-name="uni00A0" unicode="&#xa0;" horiz-adv-x="205" 
 />
    <glyph glyph-name="exclamdown" unicode="&#xa1;" horiz-adv-x="203" 
d="M154 539l60 -77l-81 -64l-60 77zM119 309l-65 -519h-106l155 519h16z" />
    <glyph glyph-name="cent" unicode="&#xa2;" horiz-adv-x="524" 
d="M379 525l-149 -489q22 -5 40 -5q102 0 185 92l11 -8q-110 -127 -238 -127h-13l-26 -88h-20l27 90q-76 10 -121 64.5t-45 138.5q-2 136 94.5 244.5t221.5 105.5q14 0 18 -1l25 82h20l-25 -83q103 -14 146 -95l-46 -34q-38 98 -105 113zM212 42l147 483l1 3h-7
q-59 3 -111.5 -50.5t-81 -131.5t-27.5 -152q0 -116 79 -152z" />
    <glyph glyph-name="sterling" unicode="&#xa3;" horiz-adv-x="540" 
d="M220 496q0 -29 7 -96l3 -26h185l-3 -18h-180q2 -40 2 -43q0 -67 -29 -116.5t-91 -93.5q49 -1 123 -24q76 -21 110 -21q45 0 72.5 20.5t48.5 59.5l18 36h10l-12 -38q-19 -63 -56 -106q-34 -42 -108 -42q-47 0 -152 34q-63 21 -83 21q-40 0 -92 -45l-9 23q93 63 127 114
t36 144q0 34 -7 77h-77l4 18h71l-6 45q-5 43 -5 74q0 107 59 177t152 70q77 0 123 -43q47 -44 66 -100l-12 -7q-26 50 -66.5 76.5t-84.5 26.5q-69 0 -107 -56q-37 -55 -37 -141z" />
    <glyph glyph-name="currency" unicode="&#xa4;" horiz-adv-x="535" 
d="M411 215l71 -71l-14 -14l-71 71q-50 -44 -117 -44t-117 44l-71 -71l-14 14l71 71q-45 51 -45 117t45 117l-71 71l14 14l71 -71q50 44 117 44t117 -44l71 71l14 -14l-71 -71q45 -51 45 -117t-45 -117zM434 332q0 63 -45.5 109t-108.5 46t-108.5 -46t-45.5 -109t45.5 -109
t108.5 -46t108.5 46t45.5 109z" />
    <glyph glyph-name="yen" unicode="&#xa5;" horiz-adv-x="575" 
d="M426 431l-65 -89h141l-3 -18h-152l-1 -1l-20 -97h152l-4 -18h-152l-44 -208h-102l45 208h-144l4 18h143l21 98h-144l4 18h137l-124 386h108l117 -380l68 93q126 167 178 287h60q-75 -98 -223 -297z" />
    <glyph glyph-name="brokenbar" unicode="&#xa6;" horiz-adv-x="158" 
d="M98 409l79 373h24l-79 -373h-24zM-3 -64l79 373h24l-79 -373h-24z" />
    <glyph glyph-name="section" unicode="&#xa7;" horiz-adv-x="524" 
d="M501 684l-17 -33q-29 32 -68.5 53.5t-77.5 21.5q-58 0 -95 -37.5t-37 -96.5q0 -31 13 -56q11 -20 34 -47l67 -64l30 -28q44 -40 83 -105q38 -62 38 -131q3 -102 -83.5 -188.5t-188.5 -84.5q-37 0 -86 17q-45 15 -76 40l17 32q29 -32 69.5 -53.5t80.5 -21.5q60 0 97 37
t37 97q0 29 -14 55q-15 28 -34 47q-15 17 -66 65l-30 28q-43 40 -83 103q-38 64 -38 133q-3 100 84 188t186 85q36 0 81.5 -16.5t76.5 -39.5zM177 568q0 68 51 124q-119 -82 -119 -199q0 -111 118 -222l30 -28q38 -36 56 -57q54 -60 54 -126q0 -69 -51 -124q119 82 119 199
q0 109 -117 221l-30 28q-34 33 -57 57q-54 60 -54 127z" />
    <glyph glyph-name="dieresis" unicode="&#xa8;" horiz-adv-x="600" 
d="M195 619l-50 66l69 54l51 -66zM386 619l-51 66l70 54l50 -66z" />
    <glyph glyph-name="copyright" unicode="&#xa9;" horiz-adv-x="837" 
d="M64 364q-3 153 109.5 266t265.5 110q100 2 187.5 -49.5t138.5 -139t49 -187.5q2 -100 -49 -187.5t-138.5 -139t-187.5 -49.5q-153 -3 -265.5 110t-109.5 266zM792 364q3 146 -103 253.5t-250 104.5q-144 3 -250 -104.5t-103 -253.5q-3 -146 103 -253.5t250 -104.5
q144 -3 250 104.5t103 253.5zM219 361q0 101 62.5 166t157.5 65q110 0 170 -85l-34 -18q-56 89 -141 89q-71 0 -118 -58t-47 -151t48.5 -150t120.5 -57q46 0 91 23.5t72 63.5l12 -7q-72 -106 -187 -106q-89 0 -148 63t-59 162z" />
    <glyph glyph-name="ordfeminine" unicode="&#xaa;" horiz-adv-x="396" 
d="M365 434q0 -20 25 -20q2 0 12 2l-1 -4q-24 -15 -58 -15q-39 0 -39 39q0 12 3 24l16 75h-4q-61 -141 -151 -141q-41 0 -62 26.5t-21 74.5q-1 56 25 113t74.5 95.5t102.5 36.5q58 0 91 -39l48 38h3l-60 -277q-4 -20 -4 -28zM352 671q-20 59 -66 59q-36 2 -69.5 -37.5
t-51.5 -93.5t-17 -99q0 -34 12.5 -56t34.5 -22q41 0 86 68t71 181z" />
    <glyph glyph-name="guillemotleft" unicode="&#xab;" horiz-adv-x="467" 
d="M296 509l-181 -250l77 -236h-12l-152 243l256 243h12zM483 509l-181 -250l77 -236h-12l-152 243l256 243h12z" />
    <glyph glyph-name="logicalnot" unicode="&#xac;" horiz-adv-x="508" 
d="M49 374h408v-220h-22v200h-386v20z" />
    <glyph glyph-name="uni00AD" unicode="&#xad;" horiz-adv-x="294" 
d="M39 264l7 33h215l-7 -33h-215z" />
    <glyph glyph-name="registered" unicode="&#xae;" horiz-adv-x="633" 
d="M631 469q2 -109 -80 -190.5t-191 -79.5q-110 -2 -192 79.5t-80 190.5q-2 108 80 190.5t192 80.5q109 2 191 -80.5t80 -190.5zM609 471q2 101 -73.5 177t-175.5 74q-101 2 -176.5 -74t-73.5 -177q-2 -101 73.5 -177.5t176.5 -74.5q100 -2 175.5 74.5t73.5 177.5zM519 309
v-6q-10 -2 -18 -2q-25 0 -41 11t-32 34l-60 93q-5 10 -24 10h-40v-147h-29v331h63q129 0 129 -86q0 -59 -77 -90l67 -99q34 -49 62 -49zM435 544q0 36 -25 56t-72 20h-34v-156q16 -3 45 -3q37 0 61.5 23.5t24.5 59.5z" />
    <glyph glyph-name="overscore" unicode="&#xaf;" horiz-adv-x="600" 
d="M159 654l7 32h275l-7 -32h-275z" />
    <glyph glyph-name="degree" unicode="&#xb0;" horiz-adv-x="335" 
d="M99 613q0 58 41 98.5t99 40.5t99 -40.5t41 -98.5t-41 -98.5t-99 -40.5t-99 40.5t-41 98.5zM357 613q0 50 -35 85q-34 36 -83 36t-84 -36q-34 -34 -34 -85t34 -86q35 -35 84 -35q48 0 83 35q35 37 35 86z" />
    <glyph glyph-name="plusminus" unicode="&#xb1;" horiz-adv-x="508" 
d="M252 374h193v-20h-193v-200h-22v200h-193v20h193v200h22v-200zM37 0v20h408v-20h-408z" />
    <glyph glyph-name="uni00B2" unicode="&#xb2;" horiz-adv-x="311" 
d="M91 344h35q99 0 179 11l-28 -56h-248l1 3l38 35q112 100 164 166t52 127q0 35 -18 53.5t-51 18.5q-56 0 -101 -62l-10 5q53 88 138 88q48 0 79 -27.5t31 -72.5q0 -39 -29 -80q-27 -38 -78 -83q-58 -49 -154 -126z" />
    <glyph glyph-name="uni00B3" unicode="&#xb3;" horiz-adv-x="310" 
d="M44 327l15 37q37 -59 92 -59q46 0 75.5 31.5t29.5 77.5q0 84 -100 105l-1 9l20 5q45 12 72 42t27 69q0 27 -18 43t-47 16q-52 0 -92 -46l-9 6q57 70 128 70q46 0 74 -22t28 -58q0 -39 -30 -68.5t-75 -42.5v-2q35 -10 57.5 -39.5t22.5 -67.5q0 -58 -47 -99t-115 -41
q-52 0 -107 34z" />
    <glyph glyph-name="acute" unicode="&#xb4;" horiz-adv-x="600" 
d="M270 606l-7 5l110 174h106z" />
    <glyph glyph-name="uni00B5" unicode="&#xb5;" horiz-adv-x="568" 
d="M557 542h4l-115 -542h-95l50 233h-8q-96 -245 -246 -245q-42 0 -68 19l1 -41q0 -79 -10 -123l-12 -55h-94l83 396l72 331l96 27h4l-79 -367q-8 -37 -8 -65q0 -76 58 -76q73 0 145.5 118t125.5 363z" />
    <glyph glyph-name="paragraph" unicode="&#xb6;" horiz-adv-x="468" 
d="M92 566q0 97 68.5 156.5t178.5 59.5h37l-179 -846h-24l93 440q-79 5 -126.5 56.5t-47.5 133.5zM476 782h24l-173 -817q-17 -78 -67 -129t-122 -64l3 17q62 13 104.5 59t57.5 117z" />
    <glyph glyph-name="middot" unicode="&#xb7;" horiz-adv-x="204" 
d="M97 225l-60 77l82 64l60 -77z" />
    <glyph glyph-name="cedilla" unicode="&#xb8;" horiz-adv-x="600" 
d="M413 -131q0 -39 -32.5 -65t-80.5 -26q-57 0 -94 25l5 9q8 -5 31 -10.5t38 -5.5q32 0 54 16t22 39q0 19 -19 32t-51 14h-25l69 103h20l-35 -52q46 -5 72 -26.5t26 -52.5z" />
    <glyph glyph-name="uni00B9" unicode="&#xb9;" horiz-adv-x="191" 
d="M233 735h4l-92 -435h-60l75 356q-25 -12 -66 -23l2 9q73 21 137 93z" />
    <glyph glyph-name="ordmasculine" unicode="&#xba;" horiz-adv-x="386" 
d="M88 532q0 85 53.5 146.5t132.5 61.5q66 0 106 -39.5t40 -104.5q0 -85 -53.5 -146.5t-132.5 -61.5q-67 0 -106.5 39.5t-39.5 104.5zM354 618q0 51 -20.5 80.5t-56.5 29.5q-51 3 -87.5 -68.5t-35.5 -149.5q0 -51 20.5 -80.5t56.5 -29.5q51 -3 88 69t35 149z" />
    <glyph glyph-name="guillemotright" unicode="&#xbb;" horiz-adv-x="467" 
d="M100 509l152 -243l-256 -243h-12l181 250l-77 236h12zM287 509l152 -243l-256 -243h-12l181 250l-77 236h12z" />
    <glyph glyph-name="onequarter" unicode="&#xbc;" horiz-adv-x="752" 
d="M246 735h4l-92 -435h-60l75 356q-25 -12 -66 -23l2 9q73 21 137 93zM32 0l594 728h25l-594 -728h-25zM707 154l-20 -40h-50l-24 -114h-61l24 114h-167l-2 21l283 298h14l-59 -279h62zM446 154h138l40 190z" />
    <glyph glyph-name="onehalf" unicode="&#xbd;" horiz-adv-x="729" 
d="M243 735h4l-92 -435h-60l75 356q-25 -12 -66 -23l2 9q73 21 137 93zM28 0l594 728h25l-594 -728h-25zM444 45h35q99 0 179 11l-28 -56h-248l1 3l38 35q112 100 164 166t52 127q0 35 -18 53.5t-51 18.5q-56 0 -101 -62l-10 5q53 88 138 88q48 0 79 -27.5t31 -72.5
q0 -39 -29 -80q-27 -38 -78 -83q-58 -49 -154 -126z" />
    <glyph glyph-name="threequarters" unicode="&#xbe;" horiz-adv-x="815" 
d="M51 327l15 37q37 -59 92 -59q46 0 75.5 31.5t29.5 77.5q0 84 -100 105l-1 9l20 5q45 12 72 42t27 69q0 27 -18 43t-47 16q-52 0 -92 -46l-9 6q57 70 128 70q46 0 74 -22t28 -58q0 -39 -30 -68.5t-75 -42.5v-2q35 -10 57.5 -39.5t22.5 -67.5q0 -58 -47 -99t-115 -41
q-52 0 -107 34zM94 0l594 728h25l-594 -728h-25zM769 154l-20 -40h-50l-24 -114h-61l24 114h-167l-2 21l283 298h14l-59 -279h62zM508 154h138l40 190z" />
    <glyph glyph-name="questiondown" unicode="&#xbf;" horiz-adv-x="461" 
d="M274 539l60 -77l-82 -64l-60 77zM288 252q0 -31 -21 -58t-74 -72q-34 -29 -65 -60q-60 -60 -60 -133q0 -51 33.5 -81t90.5 -30q84 0 160 72l10 -9q-96 -103 -216 -103q-80 0 -132 41q-50 41 -50 106q0 50 26 91q24 37 57.5 63.5t98.5 67.5q63 39 87.5 62.5t24.5 49.5
q0 17 -13 26.5t-32 9.5q-11 0 -23 -3l-1 14q13 3 25 3q33 0 53.5 -15.5t20.5 -41.5z" />
    <glyph glyph-name="Agrave" unicode="&#xc0;" horiz-adv-x="576" 
d="M413 0l-38 239h-260q-81 -148 -104 -239h-68q45 67 108 172l77 128l11 19l251 425h3l124 -744h-104zM125 257h247l-53 329l-162 -274zM418 797l-144 170h118l34 -165z" />
    <glyph glyph-name="Aacute" unicode="&#xc1;" horiz-adv-x="576" 
d="M413 0l-38 239h-260q-81 -148 -104 -239h-68q45 67 108 172l77 128l11 19l251 425h3l124 -744h-104zM125 257h247l-53 329l-162 -274zM388 797l-6 5l105 165h118z" />
    <glyph glyph-name="Acircumflex" unicode="&#xc2;" horiz-adv-x="576" 
d="M413 0l-38 239h-260q-81 -148 -104 -239h-68q45 67 108 172l77 128l11 19l251 425h3l124 -744h-104zM125 257h247l-53 329l-162 -274zM571 802l-6 -5l-137 92l-186 -92l-6 5l201 165h6z" />
    <glyph glyph-name="Atilde" unicode="&#xc3;" horiz-adv-x="576" 
d="M413 0l-38 239h-260q-81 -148 -104 -239h-68q45 67 108 172l77 128l11 19l251 425h3l124 -744h-104zM125 257h247l-53 329l-162 -274zM241 809l-10 3q37 111 110 111q30 0 97 -31q57 -27 80 -27q45 0 76 58l9 -2q-36 -112 -110 -112q-32 0 -95 31q-59 27 -82 27
q-47 0 -75 -58z" />
    <glyph glyph-name="Adieresis" unicode="&#xc4;" horiz-adv-x="576" 
d="M413 0l-38 239h-260q-81 -148 -104 -239h-68q45 67 108 172l77 128l11 19l251 425h3l124 -744h-104zM125 257h247l-53 329l-162 -274zM312 811l-51 66l70 54l50 -66zM508 811l-51 66l70 54l50 -66z" />
    <glyph glyph-name="Aring" unicode="&#xc5;" horiz-adv-x="576" 
d="M413 0l-38 239h-260q-81 -148 -104 -239h-68q45 67 108 172l77 128l11 19l251 425h3l124 -744h-104zM125 257h247l-53 329l-162 -274zM315 897q0 44 31.5 72t77.5 28t77.5 -28t31.5 -72t-31.5 -72t-77.5 -28t-77.5 28t-31.5 72zM488 897q0 40 -17 63.5t-47 23.5
t-47 -23.5t-17 -63.5t17 -63.5t47 -23.5t47 23.5t17 63.5z" />
    <glyph glyph-name="AE" unicode="&#xc6;" horiz-adv-x="833" 
d="M885 728l-1 -63h-2q-116 45 -243 45h-51l-68 -322h42q147 0 198 20h2l-14 -62h-2q-48 24 -187 24h-43l-74 -352h51q148 0 279 49h2l-32 -67h-406l55 262h-233q-107 -150 -150 -262h-71l542 728h406zM170 280h225l90 424l-292 -393z" />
    <glyph glyph-name="Ccedilla" unicode="&#xc7;" horiz-adv-x="664" 
d="M166 303q0 -126 61 -199t164 -73q136 0 231 118l12 -8q-113 -145 -271 -153l-27 -40q46 -5 72 -26.5t26 -52.5q0 -39 -32.5 -65t-80.5 -26q-57 0 -94 25l5 9q8 -5 31 -10.5t38 -5.5q32 0 54 16t22 39q0 19 -19 32t-51 14h-25l61 91q-128 2 -207.5 88t-79.5 224
q-1 116 48.5 218t139.5 163t198 59q83 0 150 -37t107 -102l-56 -41q-28 76 -79 120t-118 44q-82 0 -146 -63q-64 -61 -99 -160t-35 -198z" />
    <glyph glyph-name="Egrave" unicode="&#xc8;" horiz-adv-x="514" 
d="M170 728h395l-1 -63h-2q-116 45 -244 45h-50l-68 -322h43q146 0 197 20h1l-12 -62h-2q-50 24 -188 24h-43l-74 -352h51q149 0 280 49h2l-32 -67h-408zM400 797l-144 170h118l34 -165z" />
    <glyph glyph-name="Eacute" unicode="&#xc9;" horiz-adv-x="514" 
d="M170 728h395l-1 -63h-2q-116 45 -244 45h-50l-68 -322h43q146 0 197 20h1l-12 -62h-2q-50 24 -188 24h-43l-74 -352h51q149 0 280 49h2l-32 -67h-408zM370 797l-6 5l105 165h118z" />
    <glyph glyph-name="Ecircumflex" unicode="&#xca;" horiz-adv-x="514" 
d="M170 728h395l-1 -63h-2q-116 45 -244 45h-50l-68 -322h43q146 0 197 20h1l-12 -62h-2q-50 24 -188 24h-43l-74 -352h51q149 0 280 49h2l-32 -67h-408zM553 802l-6 -5l-137 92l-186 -92l-6 5l201 165h6z" />
    <glyph glyph-name="Edieresis" unicode="&#xcb;" horiz-adv-x="514" 
d="M170 728h395l-1 -63h-2q-116 45 -244 45h-50l-68 -322h43q146 0 197 20h1l-12 -62h-2q-50 24 -188 24h-43l-74 -352h51q149 0 280 49h2l-32 -67h-408zM293 811l-51 66l70 54l50 -66zM489 811l-51 66l70 54l50 -66z" />
    <glyph glyph-name="Igrave" unicode="&#xcc;" horiz-adv-x="245" 
d="M15 0l154 728h102l-154 -728h-102zM250 797l-144 170h118l34 -165z" />
    <glyph glyph-name="Iacute" unicode="&#xcd;" horiz-adv-x="245" 
d="M15 0l154 728h102l-154 -728h-102zM220 797l-6 5l105 165h118z" />
    <glyph glyph-name="Icircumflex" unicode="&#xce;" horiz-adv-x="245" 
d="M15 0l154 728h102l-154 -728h-102zM403 802l-6 -5l-137 92l-186 -92l-6 5l201 165h6z" />
    <glyph glyph-name="Idieresis" unicode="&#xcf;" horiz-adv-x="245" 
d="M15 0l154 728h102l-154 -728h-102zM144 811l-51 66l70 54l50 -66zM340 811l-51 66l70 54l50 -66z" />
    <glyph glyph-name="Eth" unicode="&#xd0;" horiz-adv-x="721" 
d="M711 458q3 -200 -127 -330t-329 -128h-238l79 371h-58l2 14h59l73 343h235q138 0 221 -72.5t83 -197.5zM603 472q0 111 -55.5 175.5t-154.5 64.5h-122l-70 -327h169l-3 -14h-169l-73 -346q36 -9 140 -9q97 -2 176.5 64t121.5 170.5t40 221.5z" />
    <glyph glyph-name="Ntilde" unicode="&#xd1;" horiz-adv-x="615" 
d="M599 728h60q-46 -122 -88 -318l-90 -422h-10l-291 639l-66 -309q-42 -195 -48 -318h-60q45 121 88 318l72 339l-31 68l1 3h107l254 -570l54 252q42 195 48 318zM255 809l-10 3q37 111 110 111q30 0 97 -31q57 -27 80 -27q45 0 76 58l9 -2q-36 -112 -110 -112
q-32 0 -95 31q-59 27 -82 27q-47 0 -75 -58z" />
    <glyph glyph-name="Ograve" unicode="&#xd2;" horiz-adv-x="785" 
d="M55 301q-2 116 51 218t147 162.5t204 58.5q139 0 226.5 -85.5t87.5 -227.5q2 -115 -50.5 -217t-146.5 -163t-205 -59q-139 0 -226.5 86t-87.5 227zM664 458q0 121 -55.5 193.5t-150.5 72.5q-64 2 -120.5 -38t-94 -105.5t-59.5 -147.5t-21 -163q0 -122 55.5 -194
t151.5 -72q83 -3 152.5 66t106 174t35.5 214zM491 797l-144 170h118l34 -165z" />
    <glyph glyph-name="Oacute" unicode="&#xd3;" horiz-adv-x="785" 
d="M55 301q-2 116 51 218t147 162.5t204 58.5q139 0 226.5 -85.5t87.5 -227.5q2 -115 -50.5 -217t-146.5 -163t-205 -59q-139 0 -226.5 86t-87.5 227zM664 458q0 121 -55.5 193.5t-150.5 72.5q-64 2 -120.5 -38t-94 -105.5t-59.5 -147.5t-21 -163q0 -122 55.5 -194
t151.5 -72q83 -3 152.5 66t106 174t35.5 214zM461 797l-6 5l105 165h118z" />
    <glyph glyph-name="Ocircumflex" unicode="&#xd4;" horiz-adv-x="785" 
d="M55 301q-2 116 51 218t147 162.5t204 58.5q139 0 226.5 -85.5t87.5 -227.5q2 -115 -50.5 -217t-146.5 -163t-205 -59q-139 0 -226.5 86t-87.5 227zM664 458q0 121 -55.5 193.5t-150.5 72.5q-64 2 -120.5 -38t-94 -105.5t-59.5 -147.5t-21 -163q0 -122 55.5 -194
t151.5 -72q83 -3 152.5 66t106 174t35.5 214zM644 802l-6 -5l-137 92l-186 -92l-6 5l201 165h6z" />
    <glyph glyph-name="Otilde" unicode="&#xd5;" horiz-adv-x="785" 
d="M55 301q-2 116 51 218t147 162.5t204 58.5q139 0 226.5 -85.5t87.5 -227.5q2 -115 -50.5 -217t-146.5 -163t-205 -59q-139 0 -226.5 86t-87.5 227zM664 458q0 121 -55.5 193.5t-150.5 72.5q-64 2 -120.5 -38t-94 -105.5t-59.5 -147.5t-21 -163q0 -122 55.5 -194
t151.5 -72q83 -3 152.5 66t106 174t35.5 214zM314 809l-10 3q38 111 110 111q30 0 97 -31q57 -27 80 -27q45 0 76 58l9 -2q-36 -112 -110 -112q-32 0 -95 31q-59 27 -82 27q-47 0 -75 -58z" />
    <glyph glyph-name="Odieresis" unicode="&#xd6;" horiz-adv-x="785" 
d="M55 301q-2 116 51 218t147 162.5t204 58.5q139 0 226.5 -85.5t87.5 -227.5q2 -115 -50.5 -217t-146.5 -163t-205 -59q-139 0 -226.5 86t-87.5 227zM664 458q0 121 -55.5 193.5t-150.5 72.5q-64 2 -120.5 -38t-94 -105.5t-59.5 -147.5t-21 -163q0 -122 55.5 -194
t151.5 -72q83 -3 152.5 66t106 174t35.5 214zM384 811l-51 66l70 54l50 -66zM580 811l-51 66l70 54l50 -66z" />
    <glyph glyph-name="multiply" unicode="&#xd7;" horiz-adv-x="508" 
d="M456 533l-170 -170l169 -169l-15 -15l-169 169l-169 -169l-15 15l169 169l-170 170l15 15l170 -170l170 170z" />
    <glyph glyph-name="Oslash" unicode="&#xd8;" horiz-adv-x="785" 
d="M792 768l-105 -116q84 -87 84 -225q2 -115 -50.5 -217t-146.5 -163t-205 -59q-129 0 -216 75l-103 -114l-16 11l105 116q-84 87 -84 225q-2 116 51 218t147 162.5t204 58.5q128 0 216 -75l103 114zM188 130l442 488q-55 106 -172 106q-64 2 -120.5 -38t-94 -105.5
t-59.5 -147.5t-21 -163q0 -80 25 -140zM639 599l-442 -488q55 -107 173 -107q83 -3 152.5 66t106 174t35.5 214q0 81 -25 141z" />
    <glyph glyph-name="Ugrave" unicode="&#xd9;" horiz-adv-x="627" 
d="M56 187q0 37 9 79l98 462h102l-99 -464q-9 -45 -9 -82q0 -79 39.5 -121.5t114.5 -42.5q171 0 220 229l35 163q40 194 48 318h60q-48 -129 -88 -318l-34 -158q-28 -133 -95.5 -198.5t-181.5 -65.5q-105 0 -162 52t-57 147zM453 797l-144 170h118l34 -165z" />
    <glyph glyph-name="Uacute" unicode="&#xda;" horiz-adv-x="627" 
d="M56 187q0 37 9 79l98 462h102l-99 -464q-9 -45 -9 -82q0 -79 39.5 -121.5t114.5 -42.5q171 0 220 229l35 163q40 194 48 318h60q-48 -129 -88 -318l-34 -158q-28 -133 -95.5 -198.5t-181.5 -65.5q-105 0 -162 52t-57 147zM423 797l-6 5l105 165h118z" />
    <glyph glyph-name="Ucircumflex" unicode="&#xdb;" horiz-adv-x="627" 
d="M56 187q0 37 9 79l98 462h102l-99 -464q-9 -45 -9 -82q0 -79 39.5 -121.5t114.5 -42.5q171 0 220 229l35 163q40 194 48 318h60q-48 -129 -88 -318l-34 -158q-28 -133 -95.5 -198.5t-181.5 -65.5q-105 0 -162 52t-57 147zM606 802l-6 -5l-137 92l-186 -92l-6 5l201 165h6
z" />
    <glyph glyph-name="Udieresis" unicode="&#xdc;" horiz-adv-x="627" 
d="M56 187q0 37 9 79l98 462h102l-99 -464q-9 -45 -9 -82q0 -79 39.5 -121.5t114.5 -42.5q171 0 220 229l35 163q40 194 48 318h60q-48 -129 -88 -318l-34 -158q-28 -133 -95.5 -198.5t-181.5 -65.5q-105 0 -162 52t-57 147zM347 811l-51 66l70 54l50 -66zM543 811l-51 66
l70 54l50 -66z" />
    <glyph glyph-name="Yacute" unicode="&#xdd;" horiz-adv-x="554" 
d="M418 431l-79 -107l-69 -324h-102l69 328l-127 400h107l117 -380l69 93q125 170 177 287h60q-118 -154 -222 -297zM390 797l-6 5l105 165h118z" />
    <glyph glyph-name="Thorn" unicode="&#xde;" horiz-adv-x="553" 
d="M551 430q0 -112 -82 -180t-215 -68q-46 0 -96 8l-41 -190h-102l154 728h102l-26 -122h57q124 0 186.5 -45.5t62.5 -130.5zM445 436q0 78 -38 116t-126 38h-38l-82 -382q36 -10 78 -10q95 0 150.5 69.5t55.5 168.5z" />
    <glyph glyph-name="germandbls" unicode="&#xdf;" horiz-adv-x="577" 
d="M-169 -228l-1 12q61 13 106 66t62 133l129 613q23 109 82.5 164t148.5 55q81 0 136 -39t55 -100q0 -38 -18 -66q-17 -26 -40 -44.5t-68 -44.5q-51 -29 -71 -48.5t-20 -45.5q0 -40 66 -87l33 -24q52 -38 76 -72.5t24 -82.5q0 -76 -56 -125t-142 -49q-48 0 -95 15t-75 40
l24 50q21 -42 60.5 -66.5t88.5 -24.5q57 0 93.5 32t36.5 81q0 36 -20.5 62.5t-68.5 61.5l-33 25q-38 27 -56.5 52.5t-18.5 59.5q0 36 20 63t71 69q60 49 84.5 84t27.5 95q0 53 -30 84t-80 31q-52 0 -83 -39.5t-47 -117.5l-138 -654q-20 -92 -90.5 -148.5t-172.5 -69.5z" />
    <glyph glyph-name="agrave" unicode="&#xe0;" horiz-adv-x="574" 
d="M456 54q0 -17 9 -24.5t32 -7.5q1 0 19 2l-2 -6q-44 -25 -87 -25q-63 0 -63 64q0 17 4 37l26 121h-8q-94 -227 -240 -227q-65 0 -97.5 43t-32.5 120q0 87 41 180q42 92 116 152q73 60 164 60q90 0 142 -61l75 60h4l-95 -444q-7 -29 -7 -44zM440 431q-13 45 -40.5 70
t-65.5 25q-62 0 -111 -61q-51 -62 -79 -147q-29 -89 -29 -159q0 -56 19 -90.5t56 -34.5q65 0 136 108.5t114 288.5zM358 606l-132 179h105l35 -174z" />
    <glyph glyph-name="aacute" unicode="&#xe1;" horiz-adv-x="574" 
d="M456 54q0 -17 9 -24.5t32 -7.5q1 0 19 2l-2 -6q-44 -25 -87 -25q-63 0 -63 64q0 17 4 37l26 121h-8q-94 -227 -240 -227q-65 0 -97.5 43t-32.5 120q0 87 41 180q42 92 116 152q73 60 164 60q90 0 142 -61l75 60h4l-95 -444q-7 -29 -7 -44zM440 431q-13 45 -40.5 70
t-65.5 25q-62 0 -111 -61q-51 -62 -79 -147q-29 -89 -29 -159q0 -56 19 -90.5t56 -34.5q65 0 136 108.5t114 288.5zM328 606l-6 5l110 174h105z" />
    <glyph glyph-name="acircumflex" unicode="&#xe2;" horiz-adv-x="574" 
d="M456 54q0 -17 9 -24.5t32 -7.5q1 0 19 2l-2 -6q-44 -25 -87 -25q-63 0 -63 64q0 17 4 37l26 121h-8q-94 -227 -240 -227q-65 0 -97.5 43t-32.5 120q0 87 41 180q42 92 116 152q73 60 164 60q90 0 142 -61l75 60h4l-95 -444q-7 -29 -7 -44zM440 431q-13 45 -40.5 70
t-65.5 25q-62 0 -111 -61q-51 -62 -79 -147q-29 -89 -29 -159q0 -56 19 -90.5t56 -34.5q65 0 136 108.5t114 288.5zM498 611l-6 -5l-124 100l-173 -100l-6 5l189 174h6z" />
    <glyph glyph-name="atilde" unicode="&#xe3;" horiz-adv-x="574" 
d="M456 54q0 -17 9 -24.5t32 -7.5q1 0 19 2l-2 -6q-44 -25 -87 -25q-63 0 -63 64q0 17 4 37l26 121h-8q-94 -227 -240 -227q-65 0 -97.5 43t-32.5 120q0 87 41 180q42 92 116 152q73 60 164 60q90 0 142 -61l75 60h4l-95 -444q-7 -29 -7 -44zM440 431q-13 45 -40.5 70
t-65.5 25q-62 0 -111 -61q-51 -62 -79 -147q-29 -89 -29 -159q0 -56 19 -90.5t56 -34.5q65 0 136 108.5t114 288.5zM189 618l-10 2q36 112 110 112q32 0 90 -31q51 -27 74 -27q45 0 75 58l10 -2q-37 -112 -111 -112q-31 0 -89 31q-51 27 -74 27q-45 0 -75 -58z" />
    <glyph glyph-name="adieresis" unicode="&#xe4;" horiz-adv-x="574" 
d="M456 54q0 -17 9 -24.5t32 -7.5q1 0 19 2l-2 -6q-44 -25 -87 -25q-63 0 -63 64q0 17 4 37l26 121h-8q-94 -227 -240 -227q-65 0 -97.5 43t-32.5 120q0 87 41 180q42 92 116 152q73 60 164 60q90 0 142 -61l75 60h4l-95 -444q-7 -29 -7 -44zM440 431q-13 45 -40.5 70
t-65.5 25q-62 0 -111 -61q-51 -62 -79 -147q-29 -89 -29 -159q0 -56 19 -90.5t56 -34.5q65 0 136 108.5t114 288.5zM247 619l-51 66l70 54l50 -66zM438 619l-51 66l69 54l51 -66z" />
    <glyph glyph-name="aring" unicode="&#xe5;" horiz-adv-x="574" 
d="M456 54q0 -17 9 -24.5t32 -7.5q1 0 19 2l-2 -6q-44 -25 -87 -25q-63 0 -63 64q0 17 4 37l26 121h-8q-94 -227 -240 -227q-65 0 -97.5 43t-32.5 120q0 87 41 180q42 92 116 152q73 60 164 60q90 0 142 -61l75 60h4l-95 -444q-7 -29 -7 -44zM440 431q-13 45 -40.5 70
t-65.5 25q-62 0 -111 -61q-51 -62 -79 -147q-29 -89 -29 -159q0 -56 19 -90.5t56 -34.5q65 0 136 108.5t114 288.5zM255 706q0 44 31.5 71.5t77.5 27.5t77.5 -27.5t31.5 -71.5t-31 -72t-78 -28t-78 28t-31 72zM428 706q0 40 -17 63.5t-47 23.5t-47 -23.5t-17 -63.5t17 -63.5
t47 -23.5t47 23.5t17 63.5z" />
    <glyph glyph-name="ae" unicode="&#xe6;" horiz-adv-x="821" 
d="M467 230q-2 -34 -2 -37q0 -77 30.5 -119.5t82.5 -42.5q93 0 178 96l11 -7q-108 -132 -233 -132q-69 0 -113.5 43t-53.5 121h-11q-89 -164 -210 -164q-65 0 -97.5 43t-32.5 120q0 87 41 180q42 92 116 152q73 60 164 60q99 0 152 -74q85 74 191 74q67 0 106.5 -27
t39.5 -73q0 -73 -102 -127q-102 -55 -257 -86zM469 245q114 30 195 84q82 55 82 126q0 33 -18 53t-51 20q-75 3 -135 -86t-73 -197zM366 214q8 108 68 193l6 24q-13 45 -40.5 70t-65.5 25q-62 0 -111 -61q-51 -62 -79 -147q-29 -89 -29 -159q0 -56 19 -90.5t56 -34.5
q42 0 88.5 47t87.5 133z" />
    <glyph glyph-name="ccedilla" unicode="&#xe7;" horiz-adv-x="480" 
d="M124 190q0 -75 34.5 -117t93.5 -42q44 0 91.5 24t84.5 68l10 -8q-100 -122 -219 -127l-27 -40q45 -5 71 -27t26 -52q0 -39 -32.5 -65t-79.5 -26q-57 0 -94 25l5 9q8 -5 31 -10.5t38 -5.5q32 0 54 16t22 39q0 19 -19 32t-51 14h-25l60 91q-81 5 -129 59.5t-48 143.5
q-2 87 40.5 169.5t115.5 133.5t152 49q123 0 167 -101l-45 -34q-19 63 -45 91.5t-71 28.5q-56 3 -106.5 -52t-78 -134t-26.5 -152z" />
    <glyph glyph-name="egrave" unicode="&#xe8;" horiz-adv-x="478" 
d="M124 230q-2 -34 -2 -37q0 -77 30.5 -119.5t82.5 -42.5q93 0 178 96l11 -7q-108 -132 -233 -132q-76 0 -122.5 52.5t-46.5 146.5q-2 89 39 171.5t115.5 134.5t160.5 50q67 0 106.5 -27t39.5 -73q0 -73 -102 -127q-102 -55 -257 -86zM126 245q114 30 195 84q82 55 82 126
q0 33 -18 53t-51 20q-75 3 -135 -86t-73 -197zM361 606l-132 179h105l35 -174z" />
    <glyph glyph-name="eacute" unicode="&#xe9;" horiz-adv-x="478" 
d="M124 230q-2 -34 -2 -37q0 -77 30.5 -119.5t82.5 -42.5q93 0 178 96l11 -7q-108 -132 -233 -132q-76 0 -122.5 52.5t-46.5 146.5q-2 89 39 171.5t115.5 134.5t160.5 50q67 0 106.5 -27t39.5 -73q0 -73 -102 -127q-102 -55 -257 -86zM126 245q114 30 195 84q82 55 82 126
q0 33 -18 53t-51 20q-75 3 -135 -86t-73 -197zM331 606l-6 5l110 174h105z" />
    <glyph glyph-name="ecircumflex" unicode="&#xea;" horiz-adv-x="478" 
d="M124 230q-2 -34 -2 -37q0 -77 30.5 -119.5t82.5 -42.5q93 0 178 96l11 -7q-108 -132 -233 -132q-76 0 -122.5 52.5t-46.5 146.5q-2 89 39 171.5t115.5 134.5t160.5 50q67 0 106.5 -27t39.5 -73q0 -73 -102 -127q-102 -55 -257 -86zM126 245q114 30 195 84q82 55 82 126
q0 33 -18 53t-51 20q-75 3 -135 -86t-73 -197zM501 611l-6 -5l-124 100l-173 -100l-6 5l189 174h6z" />
    <glyph glyph-name="edieresis" unicode="&#xeb;" horiz-adv-x="478" 
d="M124 230q-2 -34 -2 -37q0 -77 30.5 -119.5t82.5 -42.5q93 0 178 96l11 -7q-108 -132 -233 -132q-76 0 -122.5 52.5t-46.5 146.5q-2 89 39 171.5t115.5 134.5t160.5 50q67 0 106.5 -27t39.5 -73q0 -73 -102 -127q-102 -55 -257 -86zM126 245q114 30 195 84q82 55 82 126
q0 33 -18 53t-51 20q-75 3 -135 -86t-73 -197zM250 619l-51 66l70 54l50 -66zM441 619l-51 66l69 54l51 -66z" />
    <glyph glyph-name="igrave" unicode="&#xec;" horiz-adv-x="215" 
d="M3 0l110 515l96 27h4l-115 -542h-95zM194 606l-132 179h105l35 -174z" />
    <glyph glyph-name="iacute" unicode="&#xed;" horiz-adv-x="215" 
d="M3 0l110 515l96 27h4l-115 -542h-95zM164 606l-6 5l110 174h105z" />
    <glyph glyph-name="icircumflex" unicode="&#xee;" horiz-adv-x="215" 
d="M3 0l110 515l96 27h4l-115 -542h-95zM334 611l-6 -5l-124 100l-173 -100l-6 5l189 174h6z" />
    <glyph glyph-name="idieresis" unicode="&#xef;" horiz-adv-x="215" 
d="M3 0l110 515l96 27h4l-115 -542h-95zM83 619l-51 66l70 54l50 -66zM274 619l-51 66l69 54l51 -66z" />
    <glyph glyph-name="eth" unicode="&#xf0;" horiz-adv-x="556" 
d="M532 355q1 -95 -36.5 -180t-106.5 -137t-151 -50q-94 0 -153 61.5t-59 160.5q-2 117 77 208.5t186 89.5q81 0 138 -57q-15 107 -68 184l-137 -55l-5 16l132 53q-41 53 -99 82l7 16q75 -25 137 -80l120 48l5 -16l-111 -45q59 -57 91.5 -135t32.5 -164zM432 376q0 5 -2 45
q-61 69 -128 69q-52 2 -94 -48t-63 -120.5t-20 -140.5q0 -81 31 -128.5t85 -47.5q54 -3 99.5 56.5t69 145t22.5 169.5z" />
    <glyph glyph-name="ntilde" unicode="&#xf1;" horiz-adv-x="548" 
d="M520 419q0 -33 -9 -72l-74 -347h-95l76 355q8 37 8 62q0 80 -61 80q-72 0 -144 -122t-125 -373l-1 -2h-95l110 515l97 27h4l-52 -244h8q94 245 241 245q112 0 112 -124zM196 618l-10 2q36 112 110 112q32 0 90 -31q51 -27 74 -27q45 0 75 58l10 -2q-37 -112 -111 -112
q-31 0 -89 31q-51 27 -74 27q-45 0 -75 -58z" />
    <glyph glyph-name="ograve" unicode="&#xf2;" horiz-adv-x="554" 
d="M26 211q-3 131 86 233t207 99q96 0 151 -61q57 -60 57 -162q2 -132 -86 -233.5t-206 -98.5q-95 0 -152 60q-57 62 -57 163zM427 354q0 80 -28 127.5t-78 47.5q-74 4 -135 -113t-59 -240q0 -80 27.5 -127t77.5 -47q52 0 97 53q46 55 71 136q27 83 27 163zM352 606
l-132 179h105l35 -174z" />
    <glyph glyph-name="oacute" unicode="&#xf3;" horiz-adv-x="554" 
d="M26 211q-3 131 86 233t207 99q96 0 151 -61q57 -60 57 -162q2 -132 -86 -233.5t-206 -98.5q-95 0 -152 60q-57 62 -57 163zM427 354q0 80 -28 127.5t-78 47.5q-74 4 -135 -113t-59 -240q0 -80 27.5 -127t77.5 -47q52 0 97 53q46 55 71 136q27 83 27 163zM322 606l-6 5
l110 174h105z" />
    <glyph glyph-name="ocircumflex" unicode="&#xf4;" horiz-adv-x="554" 
d="M26 211q-3 131 86 233t207 99q96 0 151 -61q57 -60 57 -162q2 -132 -86 -233.5t-206 -98.5q-95 0 -152 60q-57 62 -57 163zM427 354q0 80 -28 127.5t-78 47.5q-74 4 -135 -113t-59 -240q0 -80 27.5 -127t77.5 -47q52 0 97 53q46 55 71 136q27 83 27 163zM492 611l-6 -5
l-124 100l-173 -100l-6 5l189 174h6z" />
    <glyph glyph-name="otilde" unicode="&#xf5;" horiz-adv-x="554" 
d="M26 211q-3 131 86 233t207 99q96 0 151 -61q57 -60 57 -162q2 -132 -86 -233.5t-206 -98.5q-95 0 -152 60q-57 62 -57 163zM427 354q0 80 -28 127.5t-78 47.5q-74 4 -135 -113t-59 -240q0 -80 27.5 -127t77.5 -47q52 0 97 53q46 55 71 136q27 83 27 163zM183 618l-10 2
q36 112 110 112q32 0 90 -31q51 -27 74 -27q45 0 75 58l10 -2q-37 -112 -111 -112q-31 0 -89 31q-51 27 -74 27q-45 0 -75 -58z" />
    <glyph glyph-name="odieresis" unicode="&#xf6;" horiz-adv-x="554" 
d="M26 211q-3 131 86 233t207 99q96 0 151 -61q57 -60 57 -162q2 -132 -86 -233.5t-206 -98.5q-95 0 -152 60q-57 62 -57 163zM427 354q0 80 -28 127.5t-78 47.5q-74 4 -135 -113t-59 -240q0 -80 27.5 -127t77.5 -47q52 0 97 53q46 55 71 136q27 83 27 163zM241 619l-51 66
l70 54l50 -66zM432 619l-51 66l69 54l51 -66z" />
    <glyph glyph-name="divide" unicode="&#xf7;" horiz-adv-x="508" 
d="M274 506l-41 41l41 41l41 -41zM70 354v20h408v-20h-408zM274 140l-41 41l41 41l41 -41z" />
    <glyph glyph-name="oslash" unicode="&#xf8;" horiz-adv-x="554" 
d="M548 571l-76 -90q55 -61 55 -161q2 -132 -86 -233.5t-206 -98.5q-85 0 -140 49l-74 -88l-15 10l76 90q-56 62 -56 162q-3 131 86 233t207 99q85 0 140 -49l74 88zM133 109l283 334q-25 86 -95 86q-74 4 -135 -113t-59 -240q0 -36 6 -67zM421 421l-283 -333q25 -86 94 -86
q52 0 97 53q46 55 71 136q27 83 27 163q0 37 -6 67z" />
    <glyph glyph-name="ugrave" unicode="&#xf9;" horiz-adv-x="546" 
d="M543 542h4l-115 -542h-94l49 233h-8q-97 -245 -246 -245q-108 0 -108 120q0 34 9 76l71 331l96 27h4l-78 -367q-8 -40 -8 -66q0 -75 57 -75q73 0 146.5 118t124.5 363zM358 606l-132 179h105l35 -174z" />
    <glyph glyph-name="uacute" unicode="&#xfa;" horiz-adv-x="546" 
d="M543 542h4l-115 -542h-94l49 233h-8q-97 -245 -246 -245q-108 0 -108 120q0 34 9 76l71 331l96 27h4l-78 -367q-8 -40 -8 -66q0 -75 57 -75q73 0 146.5 118t124.5 363zM328 606l-6 5l110 174h105z" />
    <glyph glyph-name="ucircumflex" unicode="&#xfb;" horiz-adv-x="546" 
d="M543 542h4l-115 -542h-94l49 233h-8q-97 -245 -246 -245q-108 0 -108 120q0 34 9 76l71 331l96 27h4l-78 -367q-8 -40 -8 -66q0 -75 57 -75q73 0 146.5 118t124.5 363zM498 611l-6 -5l-124 100l-173 -100l-6 5l189 174h6z" />
    <glyph glyph-name="udieresis" unicode="&#xfc;" horiz-adv-x="546" 
d="M543 542h4l-115 -542h-94l49 233h-8q-97 -245 -246 -245q-108 0 -108 120q0 34 9 76l71 331l96 27h4l-78 -367q-8 -40 -8 -66q0 -75 57 -75q73 0 146.5 118t124.5 363zM247 619l-51 66l70 54l50 -66zM438 619l-51 66l69 54l51 -66z" />
    <glyph glyph-name="yacute" unicode="&#xfd;" horiz-adv-x="450" 
d="M444 531h59q-51 -78 -182 -297l-189 -318q-53 -88 -105.5 -119t-125.5 -31l17 57q18 -7 44 -7q40 0 80.5 26t69.5 76l49 81l-102 532h96l78 -410l71 120q107 178 140 290zM305 606l-6 5l110 174h105z" />
    <glyph glyph-name="thorn" unicode="&#xfe;" horiz-adv-x="558" 
d="M542 380q0 -90 -42 -182q-41 -90 -116 -151q-74 -59 -164 -59q-73 0 -119 40l-54 -256h-94l213 1008l98 30h4l-105 -494h9q94 227 239 227q65 0 98 -43t33 -120zM443 372q0 56 -19.5 90.5t-55.5 34.5q-66 0 -137.5 -108.5t-113.5 -289.5q13 -45 40.5 -70t66.5 -25
q62 0 111 60q51 64 79 148q29 90 29 160z" />
    <glyph glyph-name="ydieresis" unicode="&#xff;" horiz-adv-x="450" 
d="M444 531h59q-51 -78 -182 -297l-189 -318q-53 -88 -105.5 -119t-125.5 -31l17 57q18 -7 44 -7q40 0 80.5 26t69.5 76l49 81l-102 532h96l78 -410l71 120q107 178 140 290zM224 619l-51 66l70 54l50 -66zM415 619l-51 66l69 54l51 -66z" />
    <glyph glyph-name="Amacron" unicode="&#x100;" horiz-adv-x="576" 
d="M413 0l-38 239h-260q-81 -148 -104 -239h-68q45 67 108 172l77 128l11 19l251 425h3l124 -744h-104zM125 257h247l-53 329l-162 -274zM252 824l7 32h314l-7 -32h-314z" />
    <glyph glyph-name="amacron" unicode="&#x101;" horiz-adv-x="574" 
d="M456 54q0 -17 9 -24.5t32 -7.5q1 0 19 2l-2 -6q-44 -25 -87 -25q-63 0 -63 64q0 17 4 37l26 121h-8q-94 -227 -240 -227q-65 0 -97.5 43t-32.5 120q0 87 41 180q42 92 116 152q73 60 164 60q90 0 142 -61l75 60h4l-95 -444q-7 -29 -7 -44zM440 431q-13 45 -40.5 70
t-65.5 25q-62 0 -111 -61q-51 -62 -79 -147q-29 -89 -29 -159q0 -56 19 -90.5t56 -34.5q65 0 136 108.5t114 288.5zM216 654l6 32h275l-6 -32h-275z" />
    <glyph glyph-name="Abreve" unicode="&#x102;" horiz-adv-x="576" 
d="M413 0l-38 239h-260q-81 -148 -104 -239h-68q45 67 108 172l77 128l11 19l251 425h3l124 -744h-104zM125 257h247l-53 329l-162 -274zM275 957l9 3q9 -42 45.5 -68.5t87.5 -26.5q52 0 99 26.5t75 68.5l9 -3q-32 -67 -82 -107.5t-113 -40.5t-94.5 40t-35.5 108z" />
    <glyph glyph-name="abreve" unicode="&#x103;" horiz-adv-x="574" 
d="M456 54q0 -17 9 -24.5t32 -7.5q1 0 19 2l-2 -6q-44 -25 -87 -25q-63 0 -63 64q0 17 4 37l26 121h-8q-94 -227 -240 -227q-65 0 -97.5 43t-32.5 120q0 87 41 180q42 92 116 152q73 60 164 60q90 0 142 -61l75 60h4l-95 -444q-7 -29 -7 -44zM440 431q-13 45 -40.5 70
t-65.5 25q-62 0 -111 -61q-51 -62 -79 -147q-29 -89 -29 -159q0 -56 19 -90.5t56 -34.5q65 0 136 108.5t114 288.5zM222 766l9 3q10 -43 43.5 -69t83.5 -26t94 26t72 69l9 -3q-70 -148 -187 -148t-124 148z" />
    <glyph glyph-name="Aogonek" unicode="&#x104;" horiz-adv-x="576" 
d="M500 -175l3 -5q-58 -42 -116 -42q-33 0 -52 17t-19 44q0 43 35.5 78t115.5 83h-54l-38 239h-260q-81 -148 -104 -239h-68q45 67 108 172l77 128l11 19l251 425h3l124 -744h-34q-95 -81 -95 -142q0 -23 13.5 -35t35.5 -12q21 0 63 14zM125 257h247l-53 329l-162 -274z" />
    <glyph glyph-name="aogonek" unicode="&#x105;" horiz-adv-x="574" 
d="M456 54q0 -17 9 -24.5t32 -7.5q1 0 19 2l-2 -6q-41 -24 -83 -25q-87 -76 -87 -135q0 -23 13.5 -35t35.5 -12q21 0 63 14l3 -5q-58 -42 -116 -42q-33 0 -52 17t-19 44q0 41 34 76t107 79q-49 7 -49 63q0 16 4 37l26 121h-8q-94 -227 -240 -227q-65 0 -97.5 43t-32.5 120
q0 87 41 180q42 92 116 152q73 60 164 60q90 0 142 -61l75 60h4l-95 -444q-7 -29 -7 -44zM440 431q-13 45 -40.5 70t-65.5 25q-62 0 -111 -61q-51 -62 -79 -147q-29 -89 -29 -159q0 -56 19 -90.5t56 -34.5q65 0 136 108.5t114 288.5z" />
    <glyph glyph-name="Cacute" unicode="&#x106;" horiz-adv-x="664" 
d="M56 300q-1 116 48.5 218t139.5 163t198 59q83 0 150 -37t107 -102l-56 -41q-28 76 -79 120t-118 44q-82 0 -146 -63q-64 -61 -99 -160t-35 -198q0 -126 61 -199t164 -73q136 0 231 118l12 -8q-118 -153 -285 -153q-130 0 -211.5 86t-81.5 226zM453 797l-6 5l105 165h118z
" />
    <glyph glyph-name="cacute" unicode="&#x107;" horiz-adv-x="480" 
d="M21 191q-2 87 40.5 169.5t115.5 133.5t152 49q123 0 167 -101l-45 -34q-19 63 -45 91.5t-71 28.5q-56 3 -106.5 -52t-78 -134t-26.5 -152q0 -75 34.5 -117t93.5 -42q44 0 91.5 24t84.5 68l10 -8q-106 -127 -227 -127q-85 0 -137.5 55.5t-52.5 147.5zM331 606l-6 5
l110 174h105z" />
    <glyph glyph-name="Ccircumflex" unicode="&#x108;" horiz-adv-x="664" 
d="M56 300q-1 116 48.5 218t139.5 163t198 59q83 0 150 -37t107 -102l-56 -41q-28 76 -79 120t-118 44q-82 0 -146 -63q-64 -61 -99 -160t-35 -198q0 -126 61 -199t164 -73q136 0 231 118l12 -8q-118 -153 -285 -153q-130 0 -211.5 86t-81.5 226zM637 802l-6 -5l-137 92
l-186 -92l-6 5l201 165h6z" />
    <glyph glyph-name="ccircumflex" unicode="&#x109;" horiz-adv-x="480" 
d="M21 191q-2 87 40.5 169.5t115.5 133.5t152 49q123 0 167 -101l-45 -34q-19 63 -45 91.5t-71 28.5q-56 3 -106.5 -52t-78 -134t-26.5 -152q0 -75 34.5 -117t93.5 -42q44 0 91.5 24t84.5 68l10 -8q-106 -127 -227 -127q-85 0 -137.5 55.5t-52.5 147.5zM501 611l-6 -5
l-124 100l-173 -100l-6 5l189 174h6z" />
    <glyph glyph-name="Cdotaccent" unicode="&#x10a;" horiz-adv-x="664" 
d="M56 300q-1 116 48.5 218t139.5 163t198 59q83 0 150 -37t107 -102l-56 -41q-28 76 -79 120t-118 44q-82 0 -146 -63q-64 -61 -99 -160t-35 -198q0 -126 61 -199t164 -73q136 0 231 118l12 -8q-118 -153 -285 -153q-130 0 -211.5 86t-81.5 226zM475 811l-60 77l82 64
l60 -77z" />
    <glyph glyph-name="cdotaccent" unicode="&#x10b;" horiz-adv-x="480" 
d="M21 191q-2 87 40.5 169.5t115.5 133.5t152 49q123 0 167 -101l-45 -34q-19 63 -45 91.5t-71 28.5q-56 3 -106.5 -52t-78 -134t-26.5 -152q0 -75 34.5 -117t93.5 -42q44 0 91.5 24t84.5 68l10 -8q-106 -127 -227 -127q-85 0 -137.5 55.5t-52.5 147.5zM352 619l-57 75
l79 61l57 -74z" />
    <glyph glyph-name="Ccaron" unicode="&#x10c;" horiz-adv-x="664" 
d="M56 300q-1 116 48.5 218t139.5 163t198 59q83 0 150 -37t107 -102l-56 -41q-28 76 -79 120t-118 44q-82 0 -146 -63q-64 -61 -99 -160t-35 -198q0 -126 61 -199t164 -73q136 0 231 118l12 -8q-118 -153 -285 -153q-130 0 -211.5 86t-81.5 226zM666 967l6 -5l-201 -165h-6
l-128 165l6 5l137 -92z" />
    <glyph glyph-name="ccaron" unicode="&#x10d;" horiz-adv-x="480" 
d="M21 191q-2 87 40.5 169.5t115.5 133.5t152 49q123 0 167 -101l-45 -34q-19 63 -45 91.5t-71 28.5q-56 3 -106.5 -52t-78 -134t-26.5 -152q0 -75 34.5 -117t93.5 -42q44 0 91.5 24t84.5 68l10 -8q-106 -127 -227 -127q-85 0 -137.5 55.5t-52.5 147.5zM532 785l6 -5
l-189 -174h-6l-114 174l6 5l124 -100z" />
    <glyph glyph-name="Dcaron" unicode="&#x10e;" horiz-adv-x="719" 
d="M709 458q3 -200 -126.5 -330t-328.5 -128h-239l155 728h235q138 0 221 -72.5t83 -197.5zM601 472q0 111 -55.5 175.5t-154.5 64.5h-122l-146 -687q36 -9 141 -9q97 -2 176.5 64t121 170.5t39.5 221.5zM610 967l6 -5l-201 -165h-6l-128 165l6 5l137 -92z" />
    <glyph glyph-name="dcaron" unicode="&#x10f;" horiz-adv-x="579" 
d="M611 810h4l-172 -810h-94l45 215h-8q-94 -227 -240 -227q-65 0 -97.5 43t-32.5 120q0 87 41 180q42 92 116 152q73 60 164 60q74 0 118 -40l59 277zM440 431q-13 45 -40.5 70t-65.5 25q-62 0 -111 -61q-51 -62 -79 -147q-29 -89 -29 -159q0 -56 19 -90.5t56 -34.5
q65 0 136 108.5t114 288.5zM660 624l-4 5q63 34 63 83q0 38 -43 63l51 46q50 -23 50 -71q0 -36 -33 -70.5t-84 -55.5z" />
    <glyph glyph-name="Dcroat" unicode="&#x110;" horiz-adv-x="721" 
d="M711 458q3 -200 -127 -330t-329 -128h-238l79 371h-58l2 14h59l73 343h235q138 0 221 -72.5t83 -197.5zM603 472q0 111 -55.5 175.5t-154.5 64.5h-122l-70 -327h169l-3 -14h-169l-73 -346q36 -9 140 -9q97 -2 176.5 64t121.5 170.5t40 221.5z" />
    <glyph glyph-name="dslash" unicode="&#x111;" horiz-adv-x="557" 
d="M662 676l-3 -14h-75l-141 -662h-94l45 215h-8q-94 -227 -240 -227q-65 0 -97.5 43t-32.5 120q0 87 41 180q42 92 116 152q73 60 164 60q74 0 118 -40l34 159h-124l3 14h124l22 104l97 30h4l-28 -134h75zM440 431q-13 45 -40.5 70t-65.5 25q-62 0 -111 -61
q-51 -62 -79 -147q-29 -89 -29 -159q0 -56 19 -90.5t56 -34.5q65 0 136 108.5t114 288.5z" />
    <glyph glyph-name="Emacron" unicode="&#x112;" horiz-adv-x="514" 
d="M170 728h395l-1 -63h-2q-116 45 -244 45h-50l-68 -322h43q146 0 197 20h1l-12 -62h-2q-50 24 -188 24h-43l-74 -352h51q149 0 280 49h2l-32 -67h-408zM234 824l7 32h314l-7 -32h-314z" />
    <glyph glyph-name="emacron" unicode="&#x113;" horiz-adv-x="478" 
d="M124 230q-2 -34 -2 -37q0 -77 30.5 -119.5t82.5 -42.5q93 0 178 96l11 -7q-108 -132 -233 -132q-76 0 -122.5 52.5t-46.5 146.5q-2 89 39 171.5t115.5 134.5t160.5 50q67 0 106.5 -27t39.5 -73q0 -73 -102 -127q-102 -55 -257 -86zM126 245q114 30 195 84q82 55 82 126
q0 33 -18 53t-51 20q-75 3 -135 -86t-73 -197zM220 654l6 32h275l-6 -32h-275z" />
    <glyph glyph-name="Ebreve" unicode="&#x114;" horiz-adv-x="514" 
d="M170 728h395l-1 -63h-2q-116 45 -244 45h-50l-68 -322h43q146 0 197 20h1l-12 -62h-2q-50 24 -188 24h-43l-74 -352h51q149 0 280 49h2l-32 -67h-408zM257 957l9 3q9 -42 45.5 -68.5t87.5 -26.5q52 0 99 26.5t75 68.5l9 -3q-32 -67 -82 -107.5t-113 -40.5t-94.5 40
t-35.5 108z" />
    <glyph glyph-name="ebreve" unicode="&#x115;" horiz-adv-x="478" 
d="M124 230q-2 -34 -2 -37q0 -77 30.5 -119.5t82.5 -42.5q93 0 178 96l11 -7q-108 -132 -233 -132q-76 0 -122.5 52.5t-46.5 146.5q-2 89 39 171.5t115.5 134.5t160.5 50q67 0 106.5 -27t39.5 -73q0 -73 -102 -127q-102 -55 -257 -86zM126 245q114 30 195 84q82 55 82 126
q0 33 -18 53t-51 20q-75 3 -135 -86t-73 -197zM225 766l9 3q10 -43 43.5 -69t83.5 -26t94 26t72 69l9 -3q-70 -148 -187 -148t-124 148z" />
    <glyph glyph-name="Edotaccent" unicode="&#x116;" horiz-adv-x="514" 
d="M170 728h395l-1 -63h-2q-116 45 -244 45h-50l-68 -322h43q146 0 197 20h1l-12 -62h-2q-50 24 -188 24h-43l-74 -352h51q149 0 280 49h2l-32 -67h-408zM392 811l-60 77l82 64l60 -77z" />
    <glyph glyph-name="edotaccent" unicode="&#x117;" horiz-adv-x="478" 
d="M124 230q-2 -34 -2 -37q0 -77 30.5 -119.5t82.5 -42.5q93 0 178 96l11 -7q-108 -132 -233 -132q-76 0 -122.5 52.5t-46.5 146.5q-2 89 39 171.5t115.5 134.5t160.5 50q67 0 106.5 -27t39.5 -73q0 -73 -102 -127q-102 -55 -257 -86zM126 245q114 30 195 84q82 55 82 126
q0 33 -18 53t-51 20q-75 3 -135 -86t-73 -197zM352 619l-57 75l79 61l57 -74z" />
    <glyph glyph-name="Eogonek" unicode="&#x118;" horiz-adv-x="514" 
d="M170 728h395l-1 -63h-2q-116 45 -244 45h-50l-68 -322h43q146 0 197 20h1l-12 -62h-2q-50 24 -188 24h-43l-74 -352h51q149 0 280 49h2l-32 -67h-40q-96 -82 -96 -142q0 -23 14 -35t36 -12q21 0 63 14l2 -5q-56 -42 -116 -42q-32 0 -51.5 17t-19.5 44q0 43 35.5 78
t115.5 83h-351z" />
    <glyph glyph-name="eogonek" unicode="&#x119;" horiz-adv-x="478" 
d="M124 230q-2 -34 -2 -37q0 -77 30.5 -119.5t82.5 -42.5q93 0 178 96l11 -7q-44 -54 -105 -95q-60 -39 -96 -85t-36 -82q0 -23 14 -35t36 -12q21 0 63 14l3 -5q-58 -42 -116 -42q-33 0 -52 17t-19 44q0 71 156 164q-42 -15 -81 -15q-76 0 -122.5 52.5t-46.5 146.5
q-2 89 39 171.5t115.5 134.5t160.5 50q67 0 106.5 -27t39.5 -73q0 -73 -102 -127q-102 -55 -257 -86zM126 245q114 30 195 84q82 55 82 126q0 33 -18 53t-51 20q-75 3 -135 -86t-73 -197z" />
    <glyph glyph-name="Ecaron" unicode="&#x11a;" horiz-adv-x="514" 
d="M170 728h395l-1 -63h-2q-116 45 -244 45h-50l-68 -322h43q146 0 197 20h1l-12 -62h-2q-50 24 -188 24h-43l-74 -352h51q149 0 280 49h2l-32 -67h-408zM582 967l6 -5l-201 -165h-6l-128 165l6 5l137 -92z" />
    <glyph glyph-name="ecaron" unicode="&#x11b;" horiz-adv-x="478" 
d="M124 230q-2 -34 -2 -37q0 -77 30.5 -119.5t82.5 -42.5q93 0 178 96l11 -7q-108 -132 -233 -132q-76 0 -122.5 52.5t-46.5 146.5q-2 89 39 171.5t115.5 134.5t160.5 50q67 0 106.5 -27t39.5 -73q0 -73 -102 -127q-102 -55 -257 -86zM126 245q114 30 195 84q82 55 82 126
q0 33 -18 53t-51 20q-75 3 -135 -86t-73 -197zM532 785l6 -5l-189 -174h-6l-114 174l6 5l124 -100z" />
    <glyph glyph-name="Gcircumflex" unicode="&#x11c;" horiz-adv-x="716" 
d="M441 312l-10 18h260l-57 -270q-116 -72 -247 -72q-152 0 -242 82t-90 224q-2 118 49.5 221.5t145.5 165t206 59.5q175 0 263 -139l-55 -42q-29 77 -81.5 121t-123.5 44q-84 3 -154.5 -65t-107.5 -171.5t-35 -211.5q0 -123 59 -197t166 -74q81 0 149 43l56 264h-151z
M645 800l-6 -5l-137 92l-186 -92l-6 5l201 165h6z" />
    <glyph glyph-name="gcircumflex" unicode="&#x11d;" horiz-adv-x="496" 
d="M553 575l-26 -80q-33 11 -53 11q-39 0 -60 -18q43 -46 43 -112q0 -76 -55 -128t-137 -70l-32 -7q-73 -16 -99.5 -26t-26.5 -27q0 -11 13 -17.5t45 -13.5l117 -25q140 -32 140 -122q2 -69 -80 -125t-189 -55q-90 0 -150.5 38.5t-60.5 99.5q0 43 31 89l55 12h4
q-32 -56 -32 -104q0 -57 42 -88t115 -31q82 0 141 37.5t59 85.5q0 62 -108 86l-127 30q-48 12 -71 27.5t-23 40.5q0 35 42 56.5t129 38.5q-66 11 -106.5 55t-40.5 107q0 84 65 143.5t155 59.5q81 0 133 -46q61 78 148 78zM370 405q0 57 -24.5 89.5t-68.5 32.5
q-61 0 -99.5 -66t-38.5 -150q0 -56 24.5 -88t68.5 -32q61 0 99.5 66t38.5 148zM449 611l-6 -5l-124 100l-173 -100l-6 5l189 174h6z" />
    <glyph glyph-name="Gbreve" unicode="&#x11e;" horiz-adv-x="716" 
d="M441 312l-10 18h260l-57 -270q-116 -72 -247 -72q-152 0 -242 82t-90 224q-2 118 49.5 221.5t145.5 165t206 59.5q175 0 263 -139l-55 -42q-29 77 -81.5 121t-123.5 44q-84 3 -154.5 -65t-107.5 -171.5t-35 -211.5q0 -123 59 -197t166 -74q81 0 149 43l56 264h-151z
M349 955l9 3q9 -42 45.5 -68.5t87.5 -26.5q52 0 99 26.5t75 68.5l9 -3q-32 -67 -82 -107.5t-113 -40.5t-94.5 40t-35.5 108z" />
    <glyph glyph-name="gbreve" unicode="&#x11f;" horiz-adv-x="496" 
d="M553 575l-26 -80q-33 11 -53 11q-39 0 -60 -18q43 -46 43 -112q0 -76 -55 -128t-137 -70l-32 -7q-73 -16 -99.5 -26t-26.5 -27q0 -11 13 -17.5t45 -13.5l117 -25q140 -32 140 -122q2 -69 -80 -125t-189 -55q-90 0 -150.5 38.5t-60.5 99.5q0 43 31 89l55 12h4
q-32 -56 -32 -104q0 -57 42 -88t115 -31q82 0 141 37.5t59 85.5q0 62 -108 86l-127 30q-48 12 -71 27.5t-23 40.5q0 35 42 56.5t129 38.5q-66 11 -106.5 55t-40.5 107q0 84 65 143.5t155 59.5q81 0 133 -46q61 78 148 78zM370 405q0 57 -24.5 89.5t-68.5 32.5
q-61 0 -99.5 -66t-38.5 -150q0 -56 24.5 -88t68.5 -32q61 0 99.5 66t38.5 148zM173 766l9 3q10 -43 43.5 -69t83.5 -26t94 26t72 69l9 -3q-70 -148 -187 -148t-124 148z" />
    <glyph glyph-name="Gdotaccent" unicode="&#x120;" horiz-adv-x="716" 
d="M441 312l-10 18h260l-57 -270q-116 -72 -247 -72q-152 0 -242 82t-90 224q-2 118 49.5 221.5t145.5 165t206 59.5q175 0 263 -139l-55 -42q-29 77 -81.5 121t-123.5 44q-84 3 -154.5 -65t-107.5 -171.5t-35 -211.5q0 -123 59 -197t166 -74q81 0 149 43l56 264h-151z
M484 809l-60 77l82 64l60 -77z" />
    <glyph glyph-name="gdotaccent" unicode="&#x121;" horiz-adv-x="496" 
d="M553 575l-26 -80q-33 11 -53 11q-39 0 -60 -18q43 -46 43 -112q0 -76 -55 -128t-137 -70l-32 -7q-73 -16 -99.5 -26t-26.5 -27q0 -11 13 -17.5t45 -13.5l117 -25q140 -32 140 -122q2 -69 -80 -125t-189 -55q-90 0 -150.5 38.5t-60.5 99.5q0 43 31 89l55 12h4
q-32 -56 -32 -104q0 -57 42 -88t115 -31q82 0 141 37.5t59 85.5q0 62 -108 86l-127 30q-48 12 -71 27.5t-23 40.5q0 35 42 56.5t129 38.5q-66 11 -106.5 55t-40.5 107q0 84 65 143.5t155 59.5q81 0 133 -46q61 78 148 78zM370 405q0 57 -24.5 89.5t-68.5 32.5
q-61 0 -99.5 -66t-38.5 -150q0 -56 24.5 -88t68.5 -32q61 0 99.5 66t38.5 148zM300 619l-57 75l79 61l57 -74z" />
    <glyph glyph-name="uni0122" unicode="&#x122;" horiz-adv-x="716" 
d="M441 312l-10 18h260l-57 -270q-116 -72 -247 -72q-152 0 -242 82t-90 224q-2 118 49.5 221.5t145.5 165t206 59.5q175 0 263 -139l-55 -42q-29 77 -81.5 121t-123.5 44q-84 3 -154.5 -65t-107.5 -171.5t-35 -211.5q0 -123 59 -197t166 -74q81 0 149 43l56 264h-151z
M299 -277l-5 6q34 17 53.5 44t19.5 56q0 41 -48 71l56 50q55 -27 55 -81q0 -43 -36.5 -82.5t-94.5 -63.5z" />
    <glyph glyph-name="uni0123" unicode="&#x123;" horiz-adv-x="496" 
d="M553 575l-26 -80q-33 11 -53 11q-39 0 -60 -18q43 -46 43 -112q0 -76 -55 -128t-137 -70l-32 -7q-73 -16 -99.5 -26t-26.5 -27q0 -11 13 -17.5t45 -13.5l117 -25q140 -32 140 -122q2 -69 -80 -125t-189 -55q-90 0 -150.5 38.5t-60.5 99.5q0 43 31 89l55 12h4
q-32 -56 -32 -104q0 -57 42 -88t115 -31q82 0 141 37.5t59 85.5q0 62 -108 86l-127 30q-48 12 -71 27.5t-23 40.5q0 35 42 56.5t129 38.5q-66 11 -106.5 55t-40.5 107q0 84 65 143.5t155 59.5q81 0 133 -46q61 78 148 78zM370 405q0 57 -24.5 89.5t-68.5 32.5
q-61 0 -99.5 -66t-38.5 -150q0 -56 24.5 -88t68.5 -32q61 0 99.5 66t38.5 148zM256 682q0 36 33 70.5t84 55.5l4 -5q-64 -34 -64 -83q0 -37 44 -63l-52 -46q-49 25 -49 71z" />
    <glyph glyph-name="Hcircumflex" unicode="&#x124;" horiz-adv-x="668" 
d="M593 728h102l-154 -728h-102l78 370h-322l-78 -370h-102l154 728h102l-72 -340h322zM617 802l-6 -5l-137 92l-186 -92l-6 5l201 165h6z" />
    <glyph glyph-name="hcircumflex" unicode="&#x125;" horiz-adv-x="548" 
d="M520 418q0 -28 -8 -71l-75 -347h-94l76 355q7 29 7 62q0 80 -60 80q-72 0 -144 -122.5t-127 -374.5h-94l165 780l97 30h4l-109 -512h9q97 245 241 245q112 0 112 -125zM397 802l-6 -5l-137 92l-186 -92l-6 5l201 165h6z" />
    <glyph glyph-name="Hbar" unicode="&#x126;" horiz-adv-x="673" 
d="M724 578l-2 -14h-60l-119 -564h-102l78 370h-321l-78 -370h-102l119 564h-59l3 14h59l32 150h102l-32 -150h321l32 150h102l-32 -150h59zM523 388l37 176h-321l-37 -176h321z" />
    <glyph glyph-name="hbar" unicode="&#x127;" horiz-adv-x="548" 
d="M520 418q0 -28 -8 -71l-75 -347h-94l76 355q7 29 7 62q0 80 -60 80q-72 0 -144 -122.5t-127 -374.5h-94l140 662h-61l3 14h61l22 104l97 30h4l-28 -134h138l-3 -14h-138l-78 -364h9q97 245 241 245q112 0 112 -125z" />
    <glyph glyph-name="Itilde" unicode="&#x128;" horiz-adv-x="245" 
d="M15 0l154 728h102l-154 -728h-102zM73 809l-10 3q38 111 110 111q30 0 97 -31q57 -27 80 -27q45 0 76 58l9 -2q-36 -112 -110 -112q-32 0 -95 31q-59 27 -82 27q-47 0 -75 -58z" />
    <glyph glyph-name="itilde" unicode="&#x129;" horiz-adv-x="215" 
d="M3 0l110 515l96 27h4l-115 -542h-95zM25 618l-10 2q36 112 110 112q32 0 90 -31q51 -27 74 -27q45 0 75 58l10 -2q-37 -112 -111 -112q-31 0 -89 31q-51 27 -74 27q-45 0 -75 -58z" />
    <glyph glyph-name="Imacron" unicode="&#x12a;" horiz-adv-x="245" 
d="M15 0l154 728h102l-154 -728h-102zM84 824l7 32h314l-7 -32h-314z" />
    <glyph glyph-name="imacron" unicode="&#x12b;" horiz-adv-x="215" 
d="M3 0l110 515l96 27h4l-115 -542h-95zM52 654l6 32h275l-6 -32h-275z" />
    <glyph glyph-name="Ibreve" unicode="&#x12c;" horiz-adv-x="245" 
d="M15 0l154 728h102l-154 -728h-102zM107 957l9 3q9 -42 45.5 -68.5t87.5 -26.5q52 0 99 26.5t75 68.5l9 -3q-32 -67 -82 -107.5t-113 -40.5t-94.5 40t-35.5 108z" />
    <glyph glyph-name="ibreve" unicode="&#x12d;" horiz-adv-x="215" 
d="M3 0l110 515l96 27h4l-115 -542h-95zM58 766l9 3q10 -43 43.5 -69t83.5 -26t94 26t72 69l9 -3q-70 -148 -187 -148t-124 148z" />
    <glyph glyph-name="Iogonek" unicode="&#x12e;" horiz-adv-x="245" 
d="M-12 -142q0 -23 14 -35t36 -12q21 0 63 14l3 -5q-58 -42 -116 -42q-33 0 -52 17t-19 44q0 43 36 79t115 82h-53l154 728h102l-154 -728h-33q-96 -82 -96 -142z" />
    <glyph glyph-name="iogonek" unicode="&#x12f;" horiz-adv-x="215" 
d="M266 687l-79 -61l-57 75l78 61zM113 515l96 27h4l-115 -542h-28q-96 -82 -96 -142q0 -23 14 -35t36 -12q21 0 63 14l3 -5q-58 -42 -116 -42q-33 0 -52 17t-19 44q0 43 36 79t115 82h-51z" />
    <glyph glyph-name="Idot" unicode="&#x130;" horiz-adv-x="245" 
d="M15 0l154 728h102l-154 -728h-102zM242 811l-60 77l82 64l60 -77z" />
    <glyph glyph-name="dotlessi" unicode="&#x131;" horiz-adv-x="215" 
d="M3 0l110 515l96 27h4l-115 -542h-95z" />
    <glyph glyph-name="IJ" unicode="&#x132;" horiz-adv-x="490" 
d="M15 0l154 728h102l-154 -728h-102zM101 -150l-6 12q70 40 109 87q39 45 61 107q20 53 44 164l108 508h102l-106 -500q-26 -121 -65 -189q-38 -69 -96 -110q-53 -38 -151 -79z" />
    <glyph glyph-name="ij" unicode="&#x133;" horiz-adv-x="423" 
d="M187 626l-57 75l78 61l58 -75zM3 0l110 515l96 27h4l-115 -542h-95zM394 626l-57 75l79 61l57 -75zM40 -228l-1 12q62 13 106.5 65.5t61.5 133.5l113 532l97 27h4l-118 -552q-20 -92 -90.5 -148.5t-172.5 -69.5z" />
    <glyph glyph-name="Jcircumflex" unicode="&#x134;" horiz-adv-x="247" 
d="M-141 -150l-6 12q68 39 110 87q39 46 60 107q20 53 44 164l108 508h102l-106 -500q-26 -121 -65 -189q-38 -69 -96 -110q-53 -38 -151 -79zM406 802l-6 -5l-137 92l-186 -92l-6 5l201 165h6z" />
    <glyph glyph-name="jcircumflex" unicode="&#x135;" horiz-adv-x="220" 
d="M-163 -228l-1 12q62 13 106.5 65.5t61.5 133.5l113 532l97 27h4l-118 -552q-20 -92 -90.5 -148.5t-172.5 -69.5zM338 611l-6 -5l-124 100l-173 -100l-6 5l189 174h6z" />
    <glyph glyph-name="uni0136" unicode="&#x136;" horiz-adv-x="604" 
d="M170 728h102l-155 -728h-102zM435 522l-35 -29l-87 -74l241 -319l-26 -122h-6l-295 395l161 136q149 125 221 219h79v-2q-52 -38 -112 -87q-56 -43 -141 -117zM169 -276l-5 6q34 17 53.5 44t19.5 56q0 41 -48 71l56 50q55 -27 55 -81q0 -43 -36.5 -82.5t-94.5 -63.5z" />
    <glyph glyph-name="uni0137" unicode="&#x137;" horiz-adv-x="489" 
d="M263 810h4l-172 -810h-94l165 780zM292 360l-26 -20l173 -242l-25 -120h-5l-225 322l97 76q70 56 112 91q36 29 71 64h66v-2q-61 -37 -112 -74q-44 -32 -126 -95zM102 -276l-5 6q34 17 53.5 44t19.5 56q0 41 -48 71l56 50q55 -27 55 -81q0 -43 -36.5 -82.5t-94.5 -63.5z
" />
    <glyph glyph-name="kgreenlandic" unicode="&#x138;" horiz-adv-x="489" 
d="M207 542h4l-116 -542h-95l110 515zM291 360l-26 -21l173 -241l-25 -120h-4l-225 322l97 76q55 43 109 89q34 28 74 66h66v-2q-65 -41 -114 -76q-58 -40 -125 -93z" />
    <glyph glyph-name="Lacute" unicode="&#x139;" horiz-adv-x="434" 
d="M382 75h2l-35 -75h-334l155 728h102l-151 -710h18q108 0 243 57zM225 797l-6 5l105 165h118z" />
    <glyph glyph-name="lacute" unicode="&#x13a;" horiz-adv-x="215" 
d="M3 0l166 780l97 30h4l-172 -810h-95zM205 797l-6 5l105 165h118z" />
    <glyph glyph-name="uni013B" unicode="&#x13b;" horiz-adv-x="434" 
d="M382 75h2l-35 -75h-334l155 728h102l-151 -710h18q108 0 243 57zM100 -276l-5 6q34 17 53.5 44t19.5 56q0 41 -48 71l56 50q55 -27 55 -81q0 -43 -36.5 -82.5t-94.5 -63.5z" />
    <glyph glyph-name="uni013C" unicode="&#x13c;" horiz-adv-x="215" 
d="M3 0l166 780l97 30h4l-172 -810h-95zM-43 -276l-5 6q34 17 53.5 44t19.5 56q0 41 -48 71l56 50q55 -27 55 -81q0 -43 -36.5 -82.5t-94.5 -63.5z" />
    <glyph glyph-name="Lcaron" unicode="&#x13d;" horiz-adv-x="453" 
d="M382 75h2l-35 -75h-334l155 728h102l-151 -710h18q108 0 243 57zM385 549l-4 5q63 34 63 83q0 38 -43 63l51 46q50 -23 50 -71q0 -36 -33 -70.5t-84 -55.5z" />
    <glyph glyph-name="lcaron" unicode="&#x13e;" horiz-adv-x="234" 
d="M3 0l166 780l97 30h4l-172 -810h-95zM277 624l-4 5q63 34 63 83q0 38 -43 63l51 46q50 -23 50 -71q0 -36 -33 -70.5t-84 -55.5z" />
    <glyph glyph-name="Ldot" unicode="&#x13f;" horiz-adv-x="455" 
d="M382 75h2l-35 -75h-334l155 728h102l-151 -710h18q108 0 243 57zM377 341l-60 77l82 64l60 -77z" />
    <glyph glyph-name="ldot" unicode="&#x140;" horiz-adv-x="307" 
d="M3 0l166 780l97 30h4l-172 -810h-95zM277 321l-60 77l82 64l60 -77z" />
    <glyph glyph-name="Lslash" unicode="&#x141;" horiz-adv-x="444" 
d="M389 75h2l-34 -75h-334l63 296l-54 -29l-7 12l65 35l88 414h102l-75 -352l175 95l7 -12l-186 -101l-73 -340h19q107 0 242 57z" />
    <glyph glyph-name="lslash" unicode="&#x142;" horiz-adv-x="248" 
d="M253 445l7 -12l-47 -25l-87 -408h-95l75 353l-81 -42l-7 12l92 48l87 409l97 30h4l-82 -384z" />
    <glyph glyph-name="Nacute" unicode="&#x143;" horiz-adv-x="615" 
d="M599 728h60q-46 -122 -88 -318l-90 -422h-10l-291 639l-66 -309q-42 -195 -48 -318h-60q45 121 88 318l72 339l-31 68l1 3h107l254 -570l54 252q42 195 48 318zM401 797l-6 5l105 165h118z" />
    <glyph glyph-name="nacute" unicode="&#x144;" horiz-adv-x="548" 
d="M520 419q0 -33 -9 -72l-74 -347h-95l76 355q8 37 8 62q0 80 -61 80q-72 0 -144 -122t-125 -373l-1 -2h-95l110 515l97 27h4l-52 -244h8q94 245 241 245q112 0 112 -124zM335 606l-6 5l110 174h105z" />
    <glyph glyph-name="uni0145" unicode="&#x145;" horiz-adv-x="615" 
d="M599 728h60q-46 -122 -88 -318l-90 -422h-10l-291 639l-66 -309q-42 -195 -48 -318h-60q45 121 88 318l72 339l-31 68l1 3h107l254 -570l54 252q42 195 48 318zM156 -276l-5 6q34 17 53.5 44t19.5 56q0 41 -48 71l56 50q55 -27 55 -81q0 -43 -36.5 -82.5t-94.5 -63.5z
" />
    <glyph glyph-name="uni0146" unicode="&#x146;" horiz-adv-x="548" 
d="M520 419q0 -33 -9 -72l-74 -347h-95l76 355q8 37 8 62q0 80 -61 80q-72 0 -144 -122t-125 -373l-1 -2h-95l110 515l97 27h4l-52 -244h8q94 245 241 245q112 0 112 -124zM124 -276l-5 6q34 17 53.5 44t19.5 56q0 41 -48 71l56 50q55 -27 55 -81q0 -43 -36.5 -82.5
t-94.5 -63.5z" />
    <glyph glyph-name="Ncaron" unicode="&#x147;" horiz-adv-x="615" 
d="M599 728h60q-46 -122 -88 -318l-90 -422h-10l-291 639l-66 -309q-42 -195 -48 -318h-60q45 121 88 318l72 339l-31 68l1 3h107l254 -570l54 252q42 195 48 318zM614 967l6 -5l-201 -165h-6l-128 165l6 5l137 -92z" />
    <glyph glyph-name="ncaron" unicode="&#x148;" horiz-adv-x="548" 
d="M520 419q0 -33 -9 -72l-74 -347h-95l76 355q8 37 8 62q0 80 -61 80q-72 0 -144 -122t-125 -373l-1 -2h-95l110 515l97 27h4l-52 -244h8q94 245 241 245q112 0 112 -124zM536 785l6 -5l-189 -174h-6l-114 174l6 5l124 -100z" />
    <glyph glyph-name="napostrophe" unicode="&#x149;" horiz-adv-x="572" 
d="M8 496l-5 7q39 19 60.5 47t21.5 59q0 52 -56 89l64 62q30 -14 47.5 -39.5t17.5 -55.5q0 -52 -44 -99q-43 -46 -106 -70zM545 419q0 -33 -9 -72l-74 -347h-95l76 355q8 37 8 62q0 80 -61 80q-72 0 -144 -122t-125 -373l-1 -2h-95l110 515l97 27h4l-52 -244h8
q94 245 241 245q112 0 112 -124z" />
    <glyph glyph-name="Eng" unicode="&#x14a;" horiz-adv-x="615" 
d="M599 728h60q-46 -122 -88 -318l-95 -445q-36 -167 -183 -193l-1 12q128 24 164 182l9 38l-285 623l-66 -309q-42 -195 -48 -318h-60q45 121 88 318l72 339l-31 68l1 3h107l255 -569l53 251q42 195 48 318z" />
    <glyph glyph-name="eng" unicode="&#x14b;" horiz-adv-x="548" 
d="M520 419q0 -33 -9 -72l-76 -357q-20 -92 -90.5 -148.5t-172.5 -69.5l-1 12q61 13 106 66t62 133l79 372q8 37 8 62q0 80 -61 80q-72 0 -144 -122t-125 -373l-1 -2h-95l110 515l97 27h4l-52 -244h8q94 245 241 245q112 0 112 -124z" />
    <glyph glyph-name="Omacron" unicode="&#x14c;" horiz-adv-x="785" 
d="M55 301q-2 116 51 218t147 162.5t204 58.5q139 0 226.5 -85.5t87.5 -227.5q2 -115 -50.5 -217t-146.5 -163t-205 -59q-139 0 -226.5 86t-87.5 227zM664 458q0 121 -55.5 193.5t-150.5 72.5q-64 2 -120.5 -38t-94 -105.5t-59.5 -147.5t-21 -163q0 -122 55.5 -194
t151.5 -72q83 -3 152.5 66t106 174t35.5 214zM325 824l7 32h314l-7 -32h-314z" />
    <glyph glyph-name="omacron" unicode="&#x14d;" horiz-adv-x="554" 
d="M26 211q-3 131 86 233t207 99q96 0 151 -61q57 -60 57 -162q2 -132 -86 -233.5t-206 -98.5q-95 0 -152 60q-57 62 -57 163zM427 354q0 80 -28 127.5t-78 47.5q-74 4 -135 -113t-59 -240q0 -80 27.5 -127t77.5 -47q52 0 97 53q46 55 71 136q27 83 27 163zM211 654l6 32
h275l-6 -32h-275z" />
    <glyph glyph-name="Obreve" unicode="&#x14e;" horiz-adv-x="785" 
d="M55 301q-2 116 51 218t147 162.5t204 58.5q139 0 226.5 -85.5t87.5 -227.5q2 -115 -50.5 -217t-146.5 -163t-205 -59q-139 0 -226.5 86t-87.5 227zM664 458q0 121 -55.5 193.5t-150.5 72.5q-64 2 -120.5 -38t-94 -105.5t-59.5 -147.5t-21 -163q0 -122 55.5 -194
t151.5 -72q83 -3 152.5 66t106 174t35.5 214zM348 957l9 3q9 -42 45.5 -68.5t87.5 -26.5q52 0 99 26.5t75 68.5l9 -3q-32 -67 -82 -107.5t-113 -40.5t-94.5 40t-35.5 108z" />
    <glyph glyph-name="obreve" unicode="&#x14f;" horiz-adv-x="554" 
d="M26 211q-3 131 86 233t207 99q96 0 151 -61q57 -60 57 -162q2 -132 -86 -233.5t-206 -98.5q-95 0 -152 60q-57 62 -57 163zM427 354q0 80 -28 127.5t-78 47.5q-74 4 -135 -113t-59 -240q0 -80 27.5 -127t77.5 -47q52 0 97 53q46 55 71 136q27 83 27 163zM216 766l9 3
q10 -43 43.5 -69t83.5 -26t94 26t72 69l9 -3q-70 -148 -187 -148t-124 148z" />
    <glyph glyph-name="Ohungarumlaut" unicode="&#x150;" horiz-adv-x="785" 
d="M55 301q-2 116 51 218t147 162.5t204 58.5q139 0 226.5 -85.5t87.5 -227.5q2 -115 -50.5 -217t-146.5 -163t-205 -59q-139 0 -226.5 86t-87.5 227zM664 458q0 121 -55.5 193.5t-150.5 72.5q-64 2 -120.5 -38t-94 -105.5t-59.5 -147.5t-21 -163q0 -122 55.5 -194
t151.5 -72q83 -3 152.5 66t106 174t35.5 214zM394 797l-7 5l108 165h101zM530 797l-6 5l108 165h101z" />
    <glyph glyph-name="ohungarumlaut" unicode="&#x151;" horiz-adv-x="554" 
d="M26 211q-3 131 86 233t207 99q96 0 151 -61q57 -60 57 -162q2 -132 -86 -233.5t-206 -98.5q-95 0 -152 60q-57 62 -57 163zM427 354q0 80 -28 127.5t-78 47.5q-74 4 -135 -113t-59 -240q0 -80 27.5 -127t77.5 -47q52 0 97 53q46 55 71 136q27 83 27 163zM254 606l-6 5
l111 174h94zM391 606l-6 5l111 174h94z" />
    <glyph glyph-name="OE" unicode="&#x152;" horiz-adv-x="987" 
d="M1039 728l-1 -63h-2q-115 45 -244 45h-50l-68 -322h42q147 0 198 20h1l-13 -62h-2q-50 24 -188 24h-42l-74 -352h51q148 0 279 49h2l-32 -67h-541q-138 0 -221 72.5t-83 197.5q-2 200 127.5 330t328.5 128h532zM492 16l146 687q-36 9 -141 9q-97 2 -176.5 -64
t-121 -170.5t-39.5 -221.5q0 -111 55.5 -175.5t154.5 -64.5h122z" />
    <glyph glyph-name="oe" unicode="&#x153;" horiz-adv-x="869" 
d="M515 230q-2 -34 -2 -37q0 -77 30.5 -119.5t82.5 -42.5q92 0 178 96l11 -7q-108 -132 -234 -132q-108 0 -146 96q-83 -96 -200 -96q-95 0 -152 60q-57 62 -57 163q-3 131 86 233t207 99q135 0 180 -116q90 116 229 116q66 0 106 -27t40 -73q0 -73 -102 -126
q-100 -52 -257 -87zM427 354q0 80 -28 127.5t-78 47.5q-74 4 -135 -113t-59 -240q0 -80 27.5 -127t77.5 -47q52 0 97 53q46 55 71 136q27 83 27 163zM517 245q114 30 195 84q82 55 82 126q0 33 -18 53t-51 20q-76 3 -135 -85.5t-73 -197.5z" />
    <glyph glyph-name="Racute" unicode="&#x154;" horiz-adv-x="593" 
d="M374 349l158 -251l-25 -120h-6l-208 330q-14 21 -44 21h-61l-71 -329h-102l155 728h161q124 0 189.5 -43t65.5 -119q0 -84 -57 -138.5t-155 -78.5zM485 569q0 143 -166 143h-50l-77 -361q29 -6 77 -6q87 0 151.5 64t64.5 160zM364 797l-6 5l105 165h118z" />
    <glyph glyph-name="racute" unicode="&#x155;" horiz-adv-x="361" 
d="M409 536l-42 -75q-20 11 -42 11q-53 0 -116 -117.5t-114 -354.5h-95l110 515l97 27h4l-52 -244h6q89 243 207 243q15 0 37 -5zM234 606l-6 5l110 174h105z" />
    <glyph glyph-name="uni0156" unicode="&#x156;" horiz-adv-x="593" 
d="M374 349l158 -251l-25 -120h-6l-208 330q-14 21 -44 21h-61l-71 -329h-102l155 728h161q124 0 189.5 -43t65.5 -119q0 -84 -57 -138.5t-155 -78.5zM485 569q0 143 -166 143h-50l-77 -361q29 -6 77 -6q87 0 151.5 64t64.5 160zM156 -276l-5 6q34 17 53.5 44t19.5 56
q0 41 -48 71l56 50q55 -27 55 -81q0 -43 -36.5 -82.5t-94.5 -63.5z" />
    <glyph glyph-name="uni0157" unicode="&#x157;" horiz-adv-x="361" 
d="M409 536l-42 -75q-20 11 -42 11q-53 0 -116 -117.5t-114 -354.5h-95l110 515l97 27h4l-52 -244h6q89 243 207 243q15 0 37 -5zM-47 -276l-5 6q34 17 53.5 44t19.5 56q0 41 -48 71l56 50q55 -27 55 -81q0 -43 -36.5 -82.5t-94.5 -63.5z" />
    <glyph glyph-name="Rcaron" unicode="&#x158;" horiz-adv-x="593" 
d="M374 349l158 -251l-25 -120h-6l-208 330q-14 21 -44 21h-61l-71 -329h-102l155 728h161q124 0 189.5 -43t65.5 -119q0 -84 -57 -138.5t-155 -78.5zM485 569q0 143 -166 143h-50l-77 -361q29 -6 77 -6q87 0 151.5 64t64.5 160zM577 967l6 -5l-201 -165h-6l-128 165l6 5
l137 -92z" />
    <glyph glyph-name="rcaron" unicode="&#x159;" horiz-adv-x="361" 
d="M409 536l-42 -75q-20 11 -42 11q-53 0 -116 -117.5t-114 -354.5h-95l110 515l97 27h4l-52 -244h6q89 243 207 243q15 0 37 -5zM435 785l6 -5l-189 -174h-6l-114 174l6 5l124 -100z" />
    <glyph glyph-name="Sacute" unicode="&#x15a;" horiz-adv-x="514" 
d="M2 57l28 61q27 -49 85 -82q59 -32 118 -32q70 0 116.5 44.5t46.5 110.5q0 35 -18 64q-17 29 -36 44l-67 51l-42 30l-48 33q-89 65 -89 158q0 87 65.5 144t164.5 57q57 0 111 -21q55 -21 86 -46l-24 -55q-71 106 -178 106q-65 0 -106.5 -39.5t-41.5 -100.5q0 -33 16 -58
q10 -17 25.5 -32t27.5 -24.5t48 -35.5l42 -30q46 -32 75 -56q65 -55 65 -137q0 -96 -71 -159.5t-175 -63.5q-60 0 -123 22q-68 24 -101 47zM324 797l-6 5l105 165h118z" />
    <glyph glyph-name="sacute" unicode="&#x15b;" horiz-adv-x="400" 
d="M-16 49l22 50q24 -43 67 -70t93 -27q53 0 87 30t34 76q0 36 -20 59.5t-69 53.5l-34 22q-54 34 -80 67t-26 81q0 68 48 110q50 42 125 42q46 0 91 -15.5t74 -37.5l-20 -46q-27 37 -66 61t-82 24q-45 0 -74.5 -27.5t-29.5 -67.5q3 -39 20.5 -58.5t66.5 -50.5l34 -22
q38 -24 56.5 -39.5t34 -44.5t16.5 -68q0 -72 -52.5 -117.5t-133.5 -45.5q-49 0 -100 17t-82 44zM230 606l-6 5l110 174h105z" />
    <glyph glyph-name="Scircumflex" unicode="&#x15c;" horiz-adv-x="514" 
d="M2 57l28 61q27 -49 85 -82q59 -32 118 -32q70 0 116.5 44.5t46.5 110.5q0 35 -18 64q-17 29 -36 44l-67 51l-42 30l-48 33q-89 65 -89 158q0 87 65.5 144t164.5 57q57 0 111 -21q55 -21 86 -46l-24 -55q-71 106 -178 106q-65 0 -106.5 -39.5t-41.5 -100.5q0 -33 16 -58
q10 -17 25.5 -32t27.5 -24.5t48 -35.5l42 -30q46 -32 75 -56q65 -55 65 -137q0 -96 -71 -159.5t-175 -63.5q-60 0 -123 22q-68 24 -101 47zM507 802l-6 -5l-137 92l-186 -92l-6 5l201 165h6z" />
    <glyph glyph-name="scircumflex" unicode="&#x15d;" horiz-adv-x="400" 
d="M-16 49l22 50q24 -43 67 -70t93 -27q53 0 87 30t34 76q0 36 -20 59.5t-69 53.5l-34 22q-54 34 -80 67t-26 81q0 68 48 110q50 42 125 42q46 0 91 -15.5t74 -37.5l-20 -46q-27 37 -66 61t-82 24q-45 0 -74.5 -27.5t-29.5 -67.5q3 -39 20.5 -58.5t66.5 -50.5l34 -22
q38 -24 56.5 -39.5t34 -44.5t16.5 -68q0 -72 -52.5 -117.5t-133.5 -45.5q-49 0 -100 17t-82 44zM400 611l-6 -5l-124 100l-173 -100l-6 5l189 174h6z" />
    <glyph glyph-name="Scedilla" unicode="&#x15e;" horiz-adv-x="514" 
d="M173 584q0 -33 16 -58q10 -17 25.5 -32t27.5 -24.5t48 -35.5l42 -30q46 -32 75 -56q65 -55 65 -137q0 -95 -67.5 -157.5t-169.5 -65.5l-27 -40q45 -5 71 -27t26 -52q0 -39 -32.5 -65t-80.5 -26q-56 0 -94 25l5 9q9 -5 32 -10.5t38 -5.5q32 0 53.5 16t21.5 39q0 19 -19 32
t-51 14h-24l60 91q-56 3 -118 24q-59 22 -94 45l28 61q27 -49 85 -82q59 -32 118 -32q70 0 116.5 44.5t46.5 110.5q0 35 -18 64q-17 29 -36 44l-67 51l-42 30l-48 33q-89 65 -89 158q0 87 65.5 144t164.5 57q57 0 111 -21q55 -21 86 -46l-24 -55q-71 106 -178 106
q-65 0 -106.5 -39.5t-41.5 -100.5z" />
    <glyph glyph-name="scedilla" unicode="&#x15f;" horiz-adv-x="400" 
d="M396 490l-20 -46q-27 37 -66 61t-82 24q-45 0 -74.5 -27.5t-29.5 -67.5q3 -39 20.5 -58.5t66.5 -50.5l34 -22q38 -24 56.5 -39.5t34 -44.5t16.5 -68q0 -70 -50 -115q-49 -45 -127 -48l-27 -40q45 -5 71 -27t26 -52q0 -39 -32.5 -65t-79.5 -26q-57 0 -94 25l5 9
q8 -5 31 -10.5t38 -5.5q32 0 54 16t22 39q0 19 -19 32t-51 14h-25l60 91q-47 2 -94 19t-76 42l22 50q24 -43 67 -70t93 -27q53 0 87 30t34 76q0 36 -20 59.5t-69 53.5l-34 22q-54 34 -80 67t-26 81q0 68 48 110q50 42 125 42q46 0 91 -15.5t74 -37.5z" />
    <glyph glyph-name="Scaron" unicode="&#x160;" horiz-adv-x="514" 
d="M2 57l28 61q27 -49 85 -82q59 -32 118 -32q70 0 116.5 44.5t46.5 110.5q0 35 -18 64q-17 29 -36 44l-67 51l-42 30l-48 33q-89 65 -89 158q0 87 65.5 144t164.5 57q57 0 111 -21q55 -21 86 -46l-24 -55q-71 106 -178 106q-65 0 -106.5 -39.5t-41.5 -100.5q0 -33 16 -58
q10 -17 25.5 -32t27.5 -24.5t48 -35.5l42 -30q46 -32 75 -56q65 -55 65 -137q0 -96 -71 -159.5t-175 -63.5q-60 0 -123 22q-68 24 -101 47zM536 967l6 -5l-201 -165h-6l-128 165l6 5l137 -92z" />
    <glyph glyph-name="scaron" unicode="&#x161;" horiz-adv-x="400" 
d="M-16 49l22 50q24 -43 67 -70t93 -27q53 0 87 30t34 76q0 36 -20 59.5t-69 53.5l-34 22q-54 34 -80 67t-26 81q0 68 48 110q50 42 125 42q46 0 91 -15.5t74 -37.5l-20 -46q-27 37 -66 61t-82 24q-45 0 -74.5 -27.5t-29.5 -67.5q3 -39 20.5 -58.5t66.5 -50.5l34 -22
q38 -24 56.5 -39.5t34 -44.5t16.5 -68q0 -72 -52.5 -117.5t-133.5 -45.5q-49 0 -100 17t-82 44zM431 785l6 -5l-189 -174h-6l-114 174l6 5l124 -100z" />
    <glyph glyph-name="uni0162" unicode="&#x162;" horiz-adv-x="530" 
d="M119 728h487l-2 -71h-2q-97 53 -172 53h-21l-150 -710h-102l150 710h-20q-74 0 -194 -53h-2zM281 -131q0 -39 -32.5 -65t-80.5 -26q-56 0 -94 25l5 9q8 -5 31 -10.5t38 -5.5q32 0 54 16t22 39q0 19 -19 32t-51 14h-25l69 103h20l-35 -52q46 -5 72 -26.5t26 -52.5z" />
    <glyph glyph-name="uni0163" unicode="&#x163;" horiz-adv-x="344" 
d="M231 509l-80 -382q-6 -26 -6 -50q0 -47 37 -47q43 0 124 81l11 -10q-82 -98 -164 -112l-28 -41q46 -5 72 -26.5t26 -52.5q0 -39 -32.5 -65t-80.5 -26q-56 0 -94 25l5 9q8 -5 31 -10.5t38 -5.5q32 0 54 16t22 39q0 19 -19 32t-51 14h-25l61 91q-83 1 -83 87q0 25 6 50
l82 384h-70l3 17l68 5l131 170h4l-37 -170h158l-18 -22h-145z" />
    <glyph glyph-name="Tcaron" unicode="&#x164;" horiz-adv-x="530" 
d="M119 728h487l-2 -71h-2q-97 53 -172 53h-21l-150 -710h-102l150 710h-20q-74 0 -194 -53h-2zM574 967l6 -5l-201 -165h-6l-128 165l6 5l137 -92z" />
    <glyph glyph-name="tcaron" unicode="&#x165;" horiz-adv-x="344" 
d="M231 509l-80 -382q-6 -26 -6 -50q0 -47 37 -47q43 0 124 81l11 -10q-97 -113 -182 -113q-86 0 -86 87q0 25 6 50l82 384h-70l3 17l68 5l131 170h4l-37 -170h158l-18 -22h-145zM340 576l-4 5q63 34 63 83q0 38 -43 63l51 46q50 -23 50 -71q0 -36 -33 -70.5t-84 -55.5z" />
    <glyph glyph-name="Tbar" unicode="&#x166;" horiz-adv-x="539" 
d="M126 728h480l-2 -71h-2q-91 53 -168 53h-21l-68 -325h119l-3 -14h-119l-79 -371h-102l79 371h-120l3 14h120l68 325h-20q-75 0 -191 -53h-2z" />
    <glyph glyph-name="tbar" unicode="&#x167;" horiz-adv-x="354" 
d="M381 509h-145l-36 -174h160l-4 -15h-159l-41 -193q-6 -26 -6 -50q0 -47 37 -47q43 0 124 81l11 -10q-97 -113 -182 -113q-86 0 -86 87q0 25 6 50l42 195h-70l4 15h69l37 174h-70l3 17l68 5l131 170h4l-37 -170h158z" />
    <glyph glyph-name="Utilde" unicode="&#x168;" horiz-adv-x="627" 
d="M56 187q0 37 9 79l98 462h102l-99 -464q-9 -45 -9 -82q0 -79 39.5 -121.5t114.5 -42.5q171 0 220 229l35 163q40 194 48 318h60q-48 -129 -88 -318l-34 -158q-28 -133 -95.5 -198.5t-181.5 -65.5q-105 0 -162 52t-57 147zM276 809l-10 3q38 111 110 111q30 0 97 -31
q57 -27 80 -27q45 0 76 58l9 -2q-36 -112 -110 -112q-32 0 -95 31q-59 27 -82 27q-47 0 -75 -58z" />
    <glyph glyph-name="utilde" unicode="&#x169;" horiz-adv-x="546" 
d="M543 542h4l-115 -542h-94l49 233h-8q-97 -245 -246 -245q-108 0 -108 120q0 34 9 76l71 331l96 27h4l-78 -367q-8 -40 -8 -66q0 -75 57 -75q73 0 146.5 118t124.5 363zM189 618l-10 2q36 112 110 112q32 0 90 -31q51 -27 74 -27q45 0 75 58l10 -2q-37 -112 -111 -112
q-31 0 -89 31q-51 27 -74 27q-45 0 -75 -58z" />
    <glyph glyph-name="Umacron" unicode="&#x16a;" horiz-adv-x="627" 
d="M56 187q0 37 9 79l98 462h102l-99 -464q-9 -45 -9 -82q0 -79 39.5 -121.5t114.5 -42.5q171 0 220 229l35 163q40 194 48 318h60q-48 -129 -88 -318l-34 -158q-28 -133 -95.5 -198.5t-181.5 -65.5q-105 0 -162 52t-57 147zM287 824l7 32h314l-7 -32h-314z" />
    <glyph glyph-name="umacron" unicode="&#x16b;" horiz-adv-x="546" 
d="M543 542h4l-115 -542h-94l49 233h-8q-97 -245 -246 -245q-108 0 -108 120q0 34 9 76l71 331l96 27h4l-78 -367q-8 -40 -8 -66q0 -75 57 -75q73 0 146.5 118t124.5 363zM217 654l6 32h275l-6 -32h-275z" />
    <glyph glyph-name="Ubreve" unicode="&#x16c;" horiz-adv-x="627" 
d="M56 187q0 37 9 79l98 462h102l-99 -464q-9 -45 -9 -82q0 -79 39.5 -121.5t114.5 -42.5q171 0 220 229l35 163q40 194 48 318h60q-48 -129 -88 -318l-34 -158q-28 -133 -95.5 -198.5t-181.5 -65.5q-105 0 -162 52t-57 147zM310 957l9 3q9 -42 45.5 -68.5t87.5 -26.5
q52 0 99 26.5t75 68.5l9 -3q-32 -67 -82 -107.5t-113 -40.5t-94.5 40t-35.5 108z" />
    <glyph glyph-name="ubreve" unicode="&#x16d;" horiz-adv-x="546" 
d="M543 542h4l-115 -542h-94l49 233h-8q-97 -245 -246 -245q-108 0 -108 120q0 34 9 76l71 331l96 27h4l-78 -367q-8 -40 -8 -66q0 -75 57 -75q73 0 146.5 118t124.5 363zM222 766l9 3q10 -43 43.5 -69t83.5 -26t94 26t72 69l9 -3q-70 -148 -187 -148t-124 148z" />
    <glyph glyph-name="Uring" unicode="&#x16e;" horiz-adv-x="627" 
d="M56 187q0 37 9 79l98 462h102l-99 -464q-9 -45 -9 -82q0 -79 39.5 -121.5t114.5 -42.5q171 0 220 229l35 163q40 194 48 318h60q-48 -129 -88 -318l-34 -158q-28 -133 -95.5 -198.5t-181.5 -65.5q-105 0 -162 52t-57 147zM350 897q0 44 31.5 72t77.5 28t77.5 -28
t31.5 -72t-31.5 -72t-77.5 -28t-77.5 28t-31.5 72zM523 897q0 40 -17 63.5t-47 23.5t-47 -23.5t-17 -63.5t17 -63.5t47 -23.5t47 23.5t17 63.5z" />
    <glyph glyph-name="uring" unicode="&#x16f;" horiz-adv-x="546" 
d="M543 542h4l-115 -542h-94l49 233h-8q-97 -245 -246 -245q-108 0 -108 120q0 34 9 76l71 331l96 27h4l-78 -367q-8 -40 -8 -66q0 -75 57 -75q73 0 146.5 118t124.5 363zM255 706q0 44 31.5 71.5t77.5 27.5t77.5 -27.5t31.5 -71.5t-31 -72t-78 -28t-78 28t-31 72zM428 706
q0 40 -17 63.5t-47 23.5t-47 -23.5t-17 -63.5t17 -63.5t47 -23.5t47 23.5t17 63.5z" />
    <glyph glyph-name="Uhungarumlaut" unicode="&#x170;" horiz-adv-x="627" 
d="M56 187q0 37 9 79l98 462h102l-99 -464q-9 -45 -9 -82q0 -79 39.5 -121.5t114.5 -42.5q171 0 220 229l35 163q40 194 48 318h60q-48 -129 -88 -318l-34 -158q-28 -133 -95.5 -198.5t-181.5 -65.5q-105 0 -162 52t-57 147zM357 797l-7 5l108 165h101zM493 797l-6 5
l108 165h101z" />
    <glyph glyph-name="uhungarumlaut" unicode="&#x171;" horiz-adv-x="546" 
d="M543 542h4l-115 -542h-94l49 233h-8q-97 -245 -246 -245q-108 0 -108 120q0 34 9 76l71 331l96 27h4l-78 -367q-8 -40 -8 -66q0 -75 57 -75q73 0 146.5 118t124.5 363zM260 606l-6 5l111 174h94zM397 606l-6 5l111 174h94z" />
    <glyph glyph-name="Uogonek" unicode="&#x172;" horiz-adv-x="627" 
d="M614 728h60q-48 -129 -88 -318l-34 -158q-27 -124 -87.5 -189.5t-160.5 -73.5q-83 -76 -83 -131q0 -23 13.5 -35t35.5 -12q21 0 63 14l3 -5q-58 -42 -116 -42q-33 0 -52 17t-19 44q0 40 31.5 74t99.5 75h-5q-105 0 -162 52t-57 147q0 37 9 79l98 462h102l-99 -464
q-9 -45 -9 -82q0 -79 39.5 -121.5t114.5 -42.5q171 0 220 229l35 163q40 194 48 318z" />
    <glyph glyph-name="uogonek" unicode="&#x173;" horiz-adv-x="546" 
d="M309 -142q0 -23 14 -35t36 -12q21 0 63 14l2 -5q-56 -42 -116 -42q-32 0 -51.5 17t-19.5 44q0 43 35.5 78t115.5 83h-50l49 233h-8q-97 -245 -246 -245q-108 0 -108 120q0 34 9 76l71 331l96 27h4l-78 -367q-8 -40 -8 -66q0 -75 57 -75q73 0 146.5 118t124.5 363l96 27h4
l-115 -542h-27q-96 -82 -96 -142z" />
    <glyph glyph-name="Wcircumflex" unicode="&#x174;" horiz-adv-x="871" 
d="M905 728h59q-62 -107 -177 -319l-228 -425h-3l-62 561l-304 -561h-4l-82 744h103l59 -562l304 562h4l62 -560l132 247q100 189 137 313zM755 802l-6 -5l-137 92l-186 -92l-6 5l201 165h6z" />
    <glyph glyph-name="wcircumflex" unicode="&#x175;" horiz-adv-x="701" 
d="M697 531h57q-55 -86 -181 -305l-138 -241h-6l-53 391l-222 -391h-6l-86 546h94l61 -398l225 398h6l53 -395l55 98q108 188 141 297zM617 611l-6 -5l-124 100l-173 -100l-6 5l189 174h6z" />
    <glyph glyph-name="Ycircumflex" unicode="&#x176;" horiz-adv-x="554" 
d="M418 431l-79 -107l-69 -324h-102l69 328l-127 400h107l117 -380l69 93q125 170 177 287h60q-118 -154 -222 -297zM573 802l-6 -5l-137 92l-186 -92l-6 5l201 165h6z" />
    <glyph glyph-name="ycircumflex" unicode="&#x177;" horiz-adv-x="450" 
d="M444 531h59q-51 -78 -182 -297l-189 -318q-53 -88 -105.5 -119t-125.5 -31l17 57q18 -7 44 -7q40 0 80.5 26t69.5 76l49 81l-102 532h96l78 -410l71 120q107 178 140 290zM475 611l-6 -5l-124 100l-173 -100l-6 5l189 174h6z" />
    <glyph glyph-name="Ydieresis" unicode="&#x178;" horiz-adv-x="554" 
d="M418 431l-79 -107l-69 -324h-102l69 328l-127 400h107l117 -380l69 93q125 170 177 287h60q-118 -154 -222 -297zM314 811l-51 66l70 54l50 -66zM510 811l-51 66l70 54l50 -66z" />
    <glyph glyph-name="Zacute" unicode="&#x179;" horiz-adv-x="513" 
d="M595 728l-1 -4l-509 -706h61q97 0 171 11q69 10 140 38h1l-32 -67h-474l1 4l510 706h-47q-187 0 -303 -45h-2l25 63h459zM362 797l-6 5l105 165h118z" />
    <glyph glyph-name="zacute" unicode="&#x17a;" horiz-adv-x="407" 
d="M445 531l-1 -4l-370 -512h42q123 0 231 28h3l-19 -43h-375l1 4l372 512h-39q-117 0 -221 -26h-3l17 41h362zM265 606l-6 5l110 174h105z" />
    <glyph glyph-name="Zdotaccent" unicode="&#x17b;" horiz-adv-x="513" 
d="M595 728l-1 -4l-509 -706h61q97 0 171 11q69 10 140 38h1l-32 -67h-474l1 4l510 706h-47q-187 0 -303 -45h-2l25 63h459zM384 811l-60 77l82 64l60 -77z" />
    <glyph glyph-name="zdotaccent" unicode="&#x17c;" horiz-adv-x="407" 
d="M445 531l-1 -4l-370 -512h42q123 0 231 28h3l-19 -43h-375l1 4l372 512h-39q-117 0 -221 -26h-3l17 41h362zM286 619l-57 75l79 61l57 -74z" />
    <glyph glyph-name="Zcaron" unicode="&#x17d;" horiz-adv-x="513" 
d="M595 728l-1 -4l-509 -706h61q97 0 171 11q69 10 140 38h1l-32 -67h-474l1 4l510 706h-47q-187 0 -303 -45h-2l25 63h459zM575 967l6 -5l-201 -165h-6l-128 165l6 5l137 -92z" />
    <glyph glyph-name="zcaron" unicode="&#x17e;" horiz-adv-x="407" 
d="M445 531l-1 -4l-370 -512h42q123 0 231 28h3l-19 -43h-375l1 4l372 512h-39q-117 0 -221 -26h-3l17 41h362zM466 785l6 -5l-189 -174h-6l-114 174l6 5l124 -100z" />
    <glyph glyph-name="longs" unicode="&#x17f;" horiz-adv-x="228" 
d="M1 0l133 625q19 92 71.5 140.5t131.5 48.5q82 0 143 -46l-9 -12q-46 24 -98 24q-111 0 -143 -150l-135 -630h-94z" />
    <glyph glyph-name="florin" unicode="&#x192;" horiz-adv-x="408" 
d="M271 564l-27 -190h158l-5 -18h-155l-54 -384q-26 -186 -152 -186q-55 0 -104 35l6 12q40 -23 85 -23q49 0 77.5 41t40.5 129l53 376h-145v18h147l28 198q26 186 152 186q55 0 104 -35l-6 -12q-40 23 -85 23q-49 0 -77.5 -41t-40.5 -129z" />
    <glyph glyph-name="Aringacute" unicode="&#x1fa;" horiz-adv-x="578" 
d="M582 1040l-181 -98l-7 5l70 93h118zM400 709l118 -709h-104l-38 239h-260q-81 -148 -104 -239h-68q45 67 108 172l77 128l11 19l231 391q-40 6 -65 32.5t-25 65.5q0 44 31 72t78 28t78 -28t31 -72q0 -41 -27.5 -68t-71.5 -31zM390 721q30 0 47.5 23.5t17.5 63.5
t-17.5 63.5t-47.5 23.5t-47 -23.5t-17 -63.5t17 -63.5t47 -23.5zM126 257h247l-53 329l-162 -274z" />
    <glyph glyph-name="aringacute" unicode="&#x1fb;" horiz-adv-x="574" 
d="M577 945l-171 -108l-7 5l73 103h105zM271 706q0 44 31.5 71.5t77.5 27.5t77.5 -27.5t31.5 -71.5t-31 -72t-78 -28t-78 28t-31 72zM316 706q0 -40 17 -63.5t47 -23.5t47 23.5t17 63.5t-17 63.5t-47 23.5t-47 -23.5t-17 -63.5zM558 542l-95 -444q-7 -29 -7 -44
q0 -17 9 -24.5t32 -7.5q1 0 19 2l-2 -6q-44 -25 -87 -25q-63 0 -63 64q0 17 4 37l26 121h-8q-94 -227 -240 -227q-65 0 -97.5 43t-32.5 120q0 87 41 180q42 92 116 152q73 60 164 60q90 0 142 -61l75 60h4zM440 431q-13 45 -40.5 70t-65.5 25q-62 0 -111 -61
q-51 -62 -79 -147q-29 -89 -29 -159q0 -56 19 -90.5t56 -34.5q65 0 136 108.5t114 288.5z" />
    <glyph glyph-name="AEacute" unicode="&#x1fc;" horiz-adv-x="833" 
d="M885 728l-1 -63h-2q-116 45 -243 45h-51l-68 -322h42q147 0 198 20h2l-14 -62h-2q-48 24 -187 24h-43l-74 -352h51q148 0 279 49h2l-32 -67h-406l55 262h-233q-107 -150 -150 -262h-71l542 728h406zM170 280h225l90 424l-292 -393zM557 797l-6 5l105 165h118z" />
    <glyph glyph-name="aeacute" unicode="&#x1fd;" horiz-adv-x="821" 
d="M467 230q-2 -34 -2 -37q0 -77 30.5 -119.5t82.5 -42.5q93 0 178 96l11 -7q-108 -132 -233 -132q-69 0 -113.5 43t-53.5 121h-11q-89 -164 -210 -164q-65 0 -97.5 43t-32.5 120q0 87 41 180q42 92 116 152q73 60 164 60q99 0 152 -74q85 74 191 74q67 0 106.5 -27
t39.5 -73q0 -73 -102 -127q-102 -55 -257 -86zM469 245q114 30 195 84q82 55 82 126q0 33 -18 53t-51 20q-75 3 -135 -86t-73 -197zM366 214q8 108 68 193l6 24q-13 45 -40.5 70t-65.5 25q-62 0 -111 -61q-51 -62 -79 -147q-29 -89 -29 -159q0 -56 19 -90.5t56 -34.5
q42 0 88.5 47t87.5 133zM498 606l-6 5l110 174h105z" />
    <glyph glyph-name="Oslashacute" unicode="&#x1fe;" horiz-adv-x="785" 
d="M792 768l-105 -116q84 -87 84 -225q2 -115 -50.5 -217t-146.5 -163t-205 -59q-129 0 -216 75l-103 -114l-16 11l105 116q-84 87 -84 225q-2 116 51 218t147 162.5t204 58.5q128 0 216 -75l103 114zM188 130l442 488q-55 106 -172 106q-64 2 -120.5 -38t-94 -105.5
t-59.5 -147.5t-21 -163q0 -80 25 -140zM639 599l-442 -488q55 -107 173 -107q83 -3 152.5 66t106 174t35.5 214q0 81 -25 141zM467 797l-6 5l105 165h118z" />
    <glyph glyph-name="oslashacute" unicode="&#x1ff;" horiz-adv-x="554" 
d="M548 571l-76 -90q55 -61 55 -161q2 -132 -86 -233.5t-206 -98.5q-85 0 -140 49l-74 -88l-15 10l76 90q-56 62 -56 162q-3 131 86 233t207 99q85 0 140 -49l74 88zM133 109l283 334q-25 86 -95 86q-74 4 -135 -113t-59 -240q0 -36 6 -67zM421 421l-283 -333q25 -86 94 -86
q52 0 97 53q46 55 71 136q27 83 27 163q0 37 -6 67zM329 606l-6 5l110 174h105z" />
    <glyph glyph-name="uni0218" unicode="&#x218;" horiz-adv-x="514" 
d="M2 57l28 61q27 -49 85 -82q59 -32 118 -32q70 0 116.5 44.5t46.5 110.5q0 35 -18 64q-17 29 -36 44l-67 51l-42 30l-48 33q-89 65 -89 158q0 87 65.5 144t164.5 57q57 0 111 -21q55 -21 86 -46l-24 -55q-71 106 -178 106q-65 0 -106.5 -39.5t-41.5 -100.5q0 -33 16 -58
q10 -17 25.5 -32t27.5 -24.5t48 -35.5l42 -30q46 -32 75 -56q65 -55 65 -137q0 -96 -71 -159.5t-175 -63.5q-60 0 -123 22q-68 24 -101 47zM140 -276l-5 6q34 17 53.5 44t19.5 56q0 41 -48 71l56 50q55 -27 55 -81q0 -43 -36.5 -82.5t-94.5 -63.5z" />
    <glyph glyph-name="uni0219" unicode="&#x219;" horiz-adv-x="400" 
d="M-16 49l22 50q24 -43 67 -70t93 -27q53 0 87 30t34 76q0 36 -20 59.5t-69 53.5l-34 22q-54 34 -80 67t-26 81q0 68 48 110q50 42 125 42q46 0 91 -15.5t74 -37.5l-20 -46q-27 37 -66 61t-82 24q-45 0 -74.5 -27.5t-29.5 -67.5q3 -39 20.5 -58.5t66.5 -50.5l34 -22
q38 -24 56.5 -39.5t34 -44.5t16.5 -68q0 -72 -52.5 -117.5t-133.5 -45.5q-49 0 -100 17t-82 44zM79 -276l-5 6q34 17 53.5 44t19.5 56q0 41 -48 71l56 50q55 -27 55 -81q0 -43 -36.5 -82.5t-94.5 -63.5z" />
    <glyph glyph-name="uni021A" unicode="&#x21a;" horiz-adv-x="530" 
d="M119 728h487l-2 -71h-2q-97 53 -172 53h-21l-150 -710h-102l150 710h-20q-74 0 -194 -53h-2zM116 -276l-5 6q34 17 53.5 44t19.5 56q0 41 -48 71l56 50q55 -27 55 -81q0 -43 -36.5 -82.5t-94.5 -63.5z" />
    <glyph glyph-name="uni021B" unicode="&#x21b;" horiz-adv-x="344" 
d="M231 509l-80 -382q-6 -26 -6 -50q0 -47 37 -47q43 0 124 81l11 -10q-97 -113 -182 -113q-86 0 -86 87q0 25 6 50l82 384h-70l3 17l68 5l131 170h4l-37 -170h158l-18 -22h-145zM56 -276l-5 6q34 17 53.5 44t19.5 56q0 41 -48 71l56 50q55 -27 55 -81q0 -43 -36.5 -82.5
t-94.5 -63.5z" />
    <glyph glyph-name="uni0237" unicode="&#x237;" horiz-adv-x="220" 
d="M-163 -228l-1 12q62 13 106.5 65.5t61.5 133.5l113 532l97 27h4l-118 -552q-20 -92 -90.5 -148.5t-172.5 -69.5z" />
    <glyph glyph-name="uni0259" unicode="&#x259;" horiz-adv-x="478" 
d="M455 343q1 -89 -39.5 -171.5t-115 -134t-160.5 -49.5q-66 0 -106 26.5t-40 72.5q0 73 101 126q102 53 258 87q2 34 2 37q0 77 -30.5 120t-82.5 43q-91 0 -178 -96l-11 7q108 132 234 132q76 0 122 -53t46 -147zM351 285q-113 -28 -196 -84q-81 -54 -81 -126
q0 -33 18 -52.5t51 -19.5q76 -3 135 85t73 197z" />
    <glyph glyph-name="uni02BB" unicode="&#x2bb;" horiz-adv-x="150" 
d="M113 688q0 37 32.5 71t84.5 55l4 -5q-64 -33 -64 -82q0 -37 44 -63l-52 -46q-49 24 -49 70z" />
    <glyph glyph-name="uni02BC" unicode="&#x2bc;" horiz-adv-x="155" 
d="M114 618l-4 5q64 33 64 82q0 38 -44 64l52 45q49 -24 49 -70q0 -37 -32.5 -71t-84.5 -55z" />
    <glyph glyph-name="circumflex" unicode="&#x2c6;" horiz-adv-x="600" 
d="M436 611l-6 -5l-124 100l-173 -100l-6 5l189 174h6z" />
    <glyph glyph-name="caron" unicode="&#x2c7;" horiz-adv-x="600" 
d="M467 785l6 -5l-189 -174h-6l-114 174l6 5l124 -100z" />
    <glyph glyph-name="uni02C9" unicode="&#x2c9;" horiz-adv-x="600" 
d="M160 654l7 32h275l-7 -32h-275z" />
    <glyph glyph-name="breve" unicode="&#x2d8;" horiz-adv-x="600" 
d="M160 766l9 3q10 -43 43.5 -69t83.5 -26t94 26t72 69l9 -3q-70 -148 -187 -148t-124 148z" />
    <glyph glyph-name="dotaccent" unicode="&#x2d9;" horiz-adv-x="600" 
d="M298 619l-57 75l79 61l57 -74z" />
    <glyph glyph-name="ring" unicode="&#x2da;" horiz-adv-x="600" 
d="M200 706q0 44 31.5 71.5t77.5 27.5q48 0 78.5 -27.5t30.5 -71.5t-31 -72t-78 -28t-78 28t-31 72zM374 706q0 40 -17.5 63.5t-47.5 23.5t-47 -23.5t-17 -63.5t17 -63.5t47 -23.5t47.5 23.5t17.5 63.5z" />
    <glyph glyph-name="ogonek" unicode="&#x2db;" horiz-adv-x="600" 
d="M237 -161q0 43 36 78.5t117 83.5h16q-97 -81 -97 -143q0 -23 14 -35t36 -12q21 0 63 14l2 -5q-56 -42 -116 -42q-32 0 -51.5 17t-19.5 44z" />
    <glyph glyph-name="tilde" unicode="&#x2dc;" horiz-adv-x="600" 
d="M126 618l-10 2q37 112 110 112q32 0 90 -31q51 -27 74 -27q45 0 75 58l10 -2q-36 -112 -110 -112q-33 0 -89 31q-49 27 -75 27q-47 0 -75 -58z" />
    <glyph glyph-name="hungarumlaut" unicode="&#x2dd;" horiz-adv-x="600" 
d="M158 606l-6 5l111 174h94zM295 606l-7 5l112 174h94z" />
    <glyph glyph-name="gravecomb" unicode="&#x300;" 
d="M-204 606l-132 179h105l35 -174z" />
    <glyph glyph-name="acutecomb" unicode="&#x301;" 
d="M-234 606l-6 5l110 174h105z" />
    <glyph glyph-name="uni0302" unicode="&#x302;" 
d="M-64 611l-6 -5l-124 100l-173 -100l-6 5l189 174h6z" />
    <glyph glyph-name="tildecomb" unicode="&#x303;" 
d="M-369 618l-10 2q36 112 110 112q32 0 90 -31q51 -27 74 -27q45 0 75 58l10 -2q-37 -112 -111 -112q-31 0 -89 31q-51 27 -74 27q-45 0 -75 -58z" />
    <glyph glyph-name="uni0304" unicode="&#x304;" 
d="M-340 654l6 32h275l-6 -32h-275z" />
    <glyph glyph-name="uni0306" unicode="&#x306;" 
d="M-340 766l9 3q10 -43 43.5 -69t83.5 -26t94 26t72 69l9 -3q-70 -148 -187 -148t-124 148z" />
    <glyph glyph-name="uni0307" unicode="&#x307;" 
d="M-211 619l-57 75l79 61l57 -74z" />
    <glyph glyph-name="uni0308" unicode="&#x308;" 
d="M-310 619l-51 66l70 54l50 -66zM-119 619l-51 66l69 54l51 -66z" />
    <glyph glyph-name="uni030A" unicode="&#x30a;" 
d="M-309 706q0 44 31.5 71.5t77.5 27.5t77.5 -27.5t31.5 -71.5t-31 -72t-78 -28t-78 28t-31 72zM-136 706q0 40 -17 63.5t-47 23.5t-47 -23.5t-17 -63.5t17 -63.5t47 -23.5t47 23.5t17 63.5z" />
    <glyph glyph-name="uni030B" unicode="&#x30b;" 
d="M-402 606l-6 5l111 174h94zM-265 606l-6 5l111 174h94z" />
    <glyph glyph-name="uni030C" unicode="&#x30c;" 
d="M-33 785l6 -5l-189 -174h-6l-114 174l6 5l124 -100z" />
    <glyph glyph-name="uni0312" unicode="&#x312;" 
d="M-260 682q0 36 33 70.5t84 55.5l4 -5q-64 -34 -64 -83q0 -37 44 -63l-52 -46q-49 25 -49 71z" />
    <glyph glyph-name="uni0313" unicode="&#x313;" 
d="M-254 611l-4 5q63 34 63 83q0 38 -43 63l51 46q50 -23 50 -71q0 -36 -33 -70.5t-84 -55.5z" />
    <glyph glyph-name="uni0326" unicode="&#x326;" 
d="M-269 -276l-5 6q34 17 53.5 44t19.5 56q0 41 -48 71l56 50q55 -27 55 -81q0 -43 -36.5 -82.5t-94.5 -63.5z" />
    <glyph glyph-name="uni0327" unicode="&#x327;" 
d="M-123 -131q0 -39 -32.5 -65t-80.5 -26q-56 0 -94 25l5 9q8 -5 31 -10.5t38 -5.5q32 0 54 16t22 39q0 19 -19 32t-51 14h-25l69 103h20l-35 -52q46 -5 72 -26.5t26 -52.5z" />
    <glyph glyph-name="uni0328" unicode="&#x328;" 
d="M-318 -161q0 43 36.5 79.5t116.5 82.5h15q-97 -81 -97 -143q0 -23 14 -35t36 -12q21 0 63 14l3 -5q-58 -42 -116 -42q-33 0 -52 17t-19 44z" />
    <glyph glyph-name="uni037E" unicode="&#x37e;" horiz-adv-x="236" 
d="M-15 -143l-5 7q39 19 60.5 47t21.5 59q0 52 -56 89l64 62q30 -14 47.5 -39.5t17.5 -55.5q0 -52 -44 -99q-43 -46 -106 -70zM145 372l-60 77l82 64l60 -77z" />
    <glyph glyph-name="uni0394" unicode="&#x394;" horiz-adv-x="577" 
d="M262 740l287 -740h-578l287 740h4zM485 18l-243 631l-245 -631h488z" />
    <glyph glyph-name="uni03A9" unicode="&#x3a9;" horiz-adv-x="822" 
d="M767 58l-18 -58h-287v26q116 85 171 176t55 199q0 142 -77 232.5t-202 90.5q-126 0 -202.5 -88.5t-76.5 -230.5q0 -105 54.5 -197t171.5 -182v-26h-287l-18 58q88 -20 201 -20h60q-125 100 -183 182q-57 82 -57 181q-2 145 95.5 243t241.5 96q152 0 244.5 -92.5
t92.5 -242.5q0 -99 -58 -184q-60 -86 -182 -183h60q113 0 201 20z" />
    <glyph glyph-name="uni03BC" unicode="&#x3bc;" horiz-adv-x="551" 
d="M548 542h4l-115 -542h-95l50 233h-8q-96 -245 -246 -245q-42 0 -68 19l1 -41q0 -79 -10 -123l-12 -55h-94l83 396l72 331l96 27h4l-79 -367q-8 -37 -8 -65q0 -76 58 -76q73 0 145.5 118t125.5 363z" />
    <glyph glyph-name="pi" unicode="&#x3c0;" horiz-adv-x="712" 
d="M649 37l8 -12q-66 -37 -119 -37q-120 0 -120 146v368h-187v-76q0 -257 -28 -426h-48q28 147 28 428v74h-118v22h396q124 0 180 10l-18 -32h-157v-360q0 -130 93 -130q44 0 90 25z" />
    <glyph glyph-name="Wgrave" unicode="&#x1e80;" horiz-adv-x="871" 
d="M905 728h59q-62 -107 -177 -319l-228 -425h-3l-62 561l-304 -561h-4l-82 744h103l59 -562l304 562h4l62 -560l132 247q100 189 137 313zM602 797l-144 170h118l34 -165z" />
    <glyph glyph-name="wgrave" unicode="&#x1e81;" horiz-adv-x="701" 
d="M697 531h57q-55 -86 -181 -305l-138 -241h-6l-53 391l-222 -391h-6l-86 546h94l61 -398l225 398h6l53 -395l55 98q108 188 141 297zM477 606l-132 179h105l35 -174z" />
    <glyph glyph-name="Wacute" unicode="&#x1e82;" horiz-adv-x="871" 
d="M905 728h59q-62 -107 -177 -319l-228 -425h-3l-62 561l-304 -561h-4l-82 744h103l59 -562l304 562h4l62 -560l132 247q100 189 137 313zM572 797l-6 5l105 165h118z" />
    <glyph glyph-name="wacute" unicode="&#x1e83;" horiz-adv-x="701" 
d="M697 531h57q-55 -86 -181 -305l-138 -241h-6l-53 391l-222 -391h-6l-86 546h94l61 -398l225 398h6l53 -395l55 98q108 188 141 297zM447 606l-6 5l110 174h105z" />
    <glyph glyph-name="Wdieresis" unicode="&#x1e84;" horiz-adv-x="871" 
d="M905 728h59q-62 -107 -177 -319l-228 -425h-3l-62 561l-304 -561h-4l-82 744h103l59 -562l304 562h4l62 -560l132 247q100 189 137 313zM496 811l-51 66l70 54l50 -66zM692 811l-51 66l70 54l50 -66z" />
    <glyph glyph-name="wdieresis" unicode="&#x1e85;" horiz-adv-x="701" 
d="M697 531h57q-55 -86 -181 -305l-138 -241h-6l-53 391l-222 -391h-6l-86 546h94l61 -398l225 398h6l53 -395l55 98q108 188 141 297zM367 619l-51 66l70 54l50 -66zM558 619l-51 66l69 54l51 -66z" />
    <glyph glyph-name="uni1E9E" unicode="&#x1e9e;" horiz-adv-x="679" 
d="M647 215q0 -98 -75.5 -161t-186.5 -63q-105 0 -164 46l25 55q20 -38 56.5 -61.5t75.5 -23.5q69 0 114 61t45 142q0 71 -41.5 113t-123.5 52l-26 3l212 301q-68 44 -141 44q-153 0 -198 -219l-107 -504h-102l106 502q25 113 100 175.5t184 62.5q131 0 254 -80l-187 -267
q86 -15 133 -62t47 -116z" />
    <glyph glyph-name="Ygrave" unicode="&#x1ef2;" horiz-adv-x="554" 
d="M418 431l-79 -107l-69 -324h-102l69 328l-127 400h107l117 -380l69 93q125 170 177 287h60q-118 -154 -222 -297zM420 797l-144 170h118l34 -165z" />
    <glyph glyph-name="ygrave" unicode="&#x1ef3;" horiz-adv-x="450" 
d="M444 531h59q-51 -78 -182 -297l-189 -318q-53 -88 -105.5 -119t-125.5 -31l17 57q18 -7 44 -7q40 0 80.5 26t69.5 76l49 81l-102 532h96l78 -410l71 120q107 178 140 290zM335 606l-132 179h105l35 -174z" />
    <glyph glyph-name="uni200B" unicode="&#x200b;" 
 />
    <glyph glyph-name="endash" unicode="&#x2013;" horiz-adv-x="455" 
d="M38 298l4 18h390l-4 -18h-390z" />
    <glyph glyph-name="emdash" unicode="&#x2014;" horiz-adv-x="745" 
d="M38 298l4 18h680l-4 -18h-680z" />
    <glyph glyph-name="uni2015" unicode="&#x2015;" horiz-adv-x="745" 
d="M38 298l4 18h680l-4 -18h-680z" />
    <glyph glyph-name="quoteleft" unicode="&#x2018;" horiz-adv-x="188" 
d="M243 740l5 -7q-82 -42 -82 -107q0 -51 57 -88l-64 -62q-65 30 -65 95q0 51 42 97.5t107 71.5z" />
    <glyph glyph-name="quoteright" unicode="&#x2019;" horiz-adv-x="191" 
d="M89 476l-5 7q39 19 60.5 47t21.5 59q0 52 -56 89l64 62q30 -14 47.5 -39.5t17.5 -55.5q0 -52 -44 -99q-43 -46 -106 -70z" />
    <glyph glyph-name="quotesinglbase" unicode="&#x201a;" horiz-adv-x="189" 
d="M-36 -143l-5 7q39 19 60.5 47t21.5 59q0 52 -56 89l64 62q30 -14 47.5 -39.5t17.5 -55.5q0 -52 -44 -99q-43 -46 -106 -70z" />
    <glyph glyph-name="quotedblleft" unicode="&#x201c;" horiz-adv-x="368" 
d="M243 740l5 -7q-82 -42 -82 -107q0 -51 57 -88l-64 -62q-65 30 -65 95q0 51 42 97.5t107 71.5zM423 740l5 -7q-82 -42 -82 -107q0 -51 57 -88l-64 -62q-65 30 -65 95q0 51 42 97.5t107 71.5z" />
    <glyph glyph-name="quotedblright" unicode="&#x201d;" horiz-adv-x="370" 
d="M269 476l-5 7q39 19 60.5 47t21.5 59q0 52 -56 89l64 62q30 -14 47.5 -39.5t17.5 -55.5q0 -52 -44 -99q-43 -46 -106 -70zM89 476l-5 7q39 19 60.5 47t21.5 59q0 52 -56 89l64 62q30 -14 47.5 -39.5t17.5 -55.5q0 -52 -44 -99q-43 -46 -106 -70z" />
    <glyph glyph-name="quotedblbase" unicode="&#x201e;" horiz-adv-x="369" 
d="M-36 -143l-5 7q39 19 60.5 47t21.5 59q0 52 -56 89l64 62q30 -14 47.5 -39.5t17.5 -55.5q0 -52 -44 -99q-43 -46 -106 -70zM144 -143l-5 7q39 19 60.5 47t21.5 59q0 52 -56 89l64 62q30 -14 47.5 -39.5t17.5 -55.5q0 -52 -44 -99q-43 -46 -106 -70z" />
    <glyph glyph-name="dagger" unicode="&#x2020;" horiz-adv-x="447" 
d="M477 513l-11 -54l-193 21l-24 -203l-91 -427l-31 -36l-17 36l91 427l61 203l-200 -21l11 54l192 -21l31 248h54l-74 -248z" />
    <glyph glyph-name="daggerdbl" unicode="&#x2021;" horiz-adv-x="472" 
d="M288 480l-21 -203l-64 -203l200 21l-11 -54l-192 21l-31 -248h-54l74 248l-201 -21l11 54l193 -21l21 203l64 203l-200 -21l11 54l192 -21l31 248h54l-74 -248l201 21l-11 -54z" />
    <glyph glyph-name="bullet" unicode="&#x2022;" horiz-adv-x="316" 
d="M149 195l-87 111l116 91l87 -111z" />
    <glyph glyph-name="ellipsis" unicode="&#x2026;" horiz-adv-x="548" 
d="M39 -21l-60 77l82 64l60 -77zM220 -21l-60 77l82 64l60 -77zM402 -21l-60 77l82 64l60 -77z" />
    <glyph glyph-name="perthousand" unicode="&#x2030;" horiz-adv-x="1072" 
d="M85 524q0 85 51 147.5t128 62.5q63 0 102 -39.5t39 -105.5q0 -85 -51 -147t-127 -62q-64 0 -103 39t-39 105zM89 0l562 728h25l-562 -728h-25zM346 613q0 51 -21 80t-59 29q-52 3 -87.5 -69t-34.5 -152q0 -51 21 -80t59 -29q52 -3 87.5 69t34.5 152zM359 139q0 85 51 147
t128 62q63 0 102 -39t39 -105q0 -85 -51 -147.5t-128 -62.5q-63 0 -102 39.5t-39 105.5zM707 139q0 85 51 147t128 62q63 0 102 -39t39 -105q0 -85 -51 -147.5t-128 -62.5q-63 0 -102 39.5t-39 105.5zM620 227q0 51 -20.5 80t-58.5 29q-52 3 -87.5 -69t-34.5 -152
q0 -51 20.5 -80t58.5 -29q52 -3 87.5 69t34.5 152zM968 227q0 51 -20.5 80t-58.5 29q-52 3 -87.5 -69t-34.5 -152q0 -51 20.5 -80t58.5 -29q52 -3 87.5 69t34.5 152z" />
    <glyph glyph-name="minute" unicode="&#x2032;" horiz-adv-x="170" 
d="M78 452l96 288h84l-170 -288h-10z" />
    <glyph glyph-name="second" unicode="&#x2033;" horiz-adv-x="310" 
d="M78 452l96 288h84l-170 -288h-10zM218 452l96 288h84l-170 -288h-10z" />
    <glyph glyph-name="guilsinglleft" unicode="&#x2039;" horiz-adv-x="280" 
d="M296 509l-181 -250l77 -236h-12l-152 243l256 243h12z" />
    <glyph glyph-name="guilsinglright" unicode="&#x203a;" horiz-adv-x="280" 
d="M100 509l152 -243l-256 -243h-12l181 250l-77 236h12z" />
    <glyph glyph-name="fraction" unicode="&#x2044;" horiz-adv-x="100" 
d="M-239 0l594 728h25l-594 -728h-25z" />
    <glyph glyph-name="uni2070" unicode="&#x2070;" horiz-adv-x="392" 
d="M81 459q-1 68 22.5 131t69.5 104t103 39q64 0 101.5 -44t37.5 -121q1 -107 -54.5 -192.5t-139.5 -82.5q-64 0 -102 44.5t-38 121.5zM350 604q0 118 -71 118q-41 0 -71 -49q-29 -46 -46 -119q-16 -68 -16 -131q0 -57 18.5 -88t53.5 -31q38 -3 70 48.5t47.5 120.5t14.5 131
z" />
    <glyph glyph-name="uni2074" unicode="&#x2074;" horiz-adv-x="324" 
d="M344 453l-20 -40h-50l-24 -114h-61l24 114h-167l-2 21l283 298h14l-59 -279h62zM83 453h138l40 190z" />
    <glyph glyph-name="uni2075" unicode="&#x2075;" horiz-adv-x="297" 
d="M333 682h-172l-30 -101q83 -6 127.5 -42t44.5 -97q0 -65 -46 -107t-113 -42q-57 0 -104 34l13 31q32 -53 88 -53q48 0 77.5 32t29.5 82q0 102 -149 110l60 199h197z" />
    <glyph glyph-name="uni2076" unicode="&#x2076;" horiz-adv-x="338" 
d="M70 429q-2 102 78 194.5t185 109.5l2 -9q-87 -21 -144 -118.5t-55 -203.5q0 -47 16.5 -72.5t46.5 -25.5q40 0 64.5 48t24.5 106q0 37 -15.5 58t-43.5 21q-27 0 -52 -19l-6 8q37 34 80 34q45 0 74.5 -31.5t29.5 -79.5q0 -65 -45.5 -110.5t-107.5 -45.5q-61 0 -96.5 37
t-35.5 99z" />
    <glyph glyph-name="uni2077" unicode="&#x2077;" horiz-adv-x="281" 
d="M117 728h250v-4l-233 -425h-63l256 383h-63q-108 0 -169 -14z" />
    <glyph glyph-name="uni2078" unicode="&#x2078;" horiz-adv-x="330" 
d="M332 419q0 -54 -43.5 -90t-103.5 -36q-52 0 -88.5 26.5t-36.5 68.5q0 44 31.5 78.5t83.5 48.5q-57 44 -57 95q0 53 38 88t93 35q45 0 76 -25t31 -63t-27.5 -68t-73.5 -45q77 -54 77 -113zM168 633q0 -45 59 -83l16 -11q68 43 68 114q0 31 -17 50t-46 19q-35 0 -57.5 -26
t-22.5 -63zM281 397q0 47 -64 90l-23 15l-9 6q-36 -18 -57 -51.5t-21 -72.5q0 -36 22.5 -58t56.5 -22q40 0 67.5 27.5t27.5 65.5z" />
    <glyph glyph-name="uni2079" unicode="&#x2079;" horiz-adv-x="338" 
d="M110 293l-2 10q88 23 143 118t55 203q0 47 -16.5 72.5t-46.5 25.5q-39 0 -64 -48t-25 -105q0 -38 16 -58.5t44 -20.5q27 0 52 19l5 -9q-37 -34 -80 -34q-45 0 -74.5 31.5t-29.5 79.5q0 67 44.5 111.5t108.5 44.5q61 0 96.5 -36.5t35.5 -98.5q2 -102 -77.5 -194.5
t-184.5 -110.5z" />
    <glyph glyph-name="uni2080" unicode="&#x2080;" horiz-adv-x="392" 
d="M-19 -9q-1 68 22.5 131t69.5 104t103 39q64 0 101.5 -44t37.5 -121q1 -107 -54.5 -192.5t-139.5 -82.5q-64 0 -102 44.5t-38 121.5zM250 136q0 118 -71 118q-41 0 -71 -49q-29 -46 -46 -119q-16 -68 -16 -131q0 -57 18.5 -88t53.5 -31q38 -3 70 48.5t47.5 120.5t14.5 131
z" />
    <glyph glyph-name="uni2081" unicode="&#x2081;" horiz-adv-x="191" 
d="M134 267h4l-92 -435h-60l75 356q-25 -12 -66 -23l2 9q73 21 137 93z" />
    <glyph glyph-name="uni2082" unicode="&#x2082;" horiz-adv-x="311" 
d="M-8 -124h35q99 0 179 11l-28 -56h-248l1 3l38 35q112 100 164 166t52 127q0 35 -18 53.5t-51 18.5q-56 0 -101 -62l-10 5q53 88 138 88q48 0 79 -27.5t31 -72.5q0 -39 -29 -80q-27 -38 -78 -83q-58 -49 -154 -126z" />
    <glyph glyph-name="uni2083" unicode="&#x2083;" horiz-adv-x="310" 
d="M-55 -141l15 37q37 -59 92 -59q46 0 75.5 31.5t29.5 77.5q0 84 -100 105l-1 9l20 5q45 12 72 42t27 69q0 27 -18 43t-47 16q-52 0 -92 -46l-9 6q57 70 128 70q46 0 74 -22t28 -58q0 -39 -30 -68.5t-75 -42.5v-2q35 -10 57.5 -39.5t22.5 -67.5q0 -58 -47 -99t-115 -41
q-52 0 -107 34z" />
    <glyph glyph-name="uni2084" unicode="&#x2084;" horiz-adv-x="324" 
d="M246 -15l-20 -40h-50l-24 -114h-61l24 114h-167l-2 21l283 298h14l-59 -279h62zM-15 -15h138l40 190z" />
    <glyph glyph-name="uni2085" unicode="&#x2085;" horiz-adv-x="297" 
d="M234 214h-172l-30 -101q83 -6 127.5 -42t44.5 -97q0 -65 -46 -107t-113 -42q-57 0 -104 34l13 31q32 -53 88 -53q48 0 77.5 32t29.5 82q0 102 -149 110l60 199h197z" />
    <glyph glyph-name="uni2086" unicode="&#x2086;" horiz-adv-x="338" 
d="M-30 -39q-2 102 78 194.5t185 109.5l2 -9q-87 -21 -144 -118.5t-55 -203.5q0 -47 16.5 -72.5t46.5 -25.5q40 0 64.5 48t24.5 106q0 37 -15.5 58t-43.5 21q-27 0 -52 -19l-6 8q37 34 80 34q45 0 74.5 -31.5t29.5 -79.5q0 -65 -45.5 -110.5t-107.5 -45.5q-61 0 -96.5 37
t-35.5 99z" />
    <glyph glyph-name="uni2087" unicode="&#x2087;" horiz-adv-x="281" 
d="M18 260h250v-4l-233 -425h-63l256 383h-63q-108 0 -169 -14z" />
    <glyph glyph-name="uni2088" unicode="&#x2088;" horiz-adv-x="330" 
d="M233 -49q0 -54 -43.5 -90t-103.5 -36q-52 0 -88.5 26.5t-36.5 68.5q0 44 31.5 78.5t83.5 48.5q-57 44 -57 95q0 53 38 88t93 35q45 0 76 -25t31 -63t-27.5 -68t-73.5 -45q77 -54 77 -113zM69 165q0 -45 59 -83l16 -11q68 43 68 114q0 31 -17 50t-46 19q-35 0 -57.5 -26
t-22.5 -63zM182 -71q0 47 -64 90l-23 15l-9 6q-36 -18 -57 -51.5t-21 -72.5q0 -36 22.5 -58t56.5 -22q40 0 67.5 27.5t27.5 65.5z" />
    <glyph glyph-name="uni2089" unicode="&#x2089;" horiz-adv-x="338" 
d="M11 -175l-2 10q88 23 143 118t55 203q0 47 -16.5 72.5t-46.5 25.5q-39 0 -64 -48t-25 -105q0 -38 16 -58.5t44 -20.5q27 0 52 19l5 -9q-37 -34 -80 -34q-45 0 -74.5 31.5t-29.5 79.5q0 67 44.5 111.5t108.5 44.5q61 0 96.5 -36.5t35.5 -98.5q2 -102 -77.5 -194.5
t-184.5 -110.5z" />
    <glyph glyph-name="Euro" unicode="&#x20ac;" horiz-adv-x="647" 
d="M230 432h243l-9 -18h-238q-10 -44 -13 -98h200l-9 -18h-192v-15q0 -117 51.5 -184t139.5 -67q100 0 175 76l10 -10q-100 -109 -225 -109q-114 0 -186.5 83.5t-72.5 218.5v7h-66l4 18h63q2 53 14 98h-56l4 18h56q37 134 131 221t215 87q129 0 208 -103l-51 -40
q-25 59 -63.5 92.5t-85.5 33.5q-86 0 -152 -84q-65 -85 -95 -207z" />
    <glyph glyph-name="uni2113" unicode="&#x2113;" horiz-adv-x="340" 
d="M265 80l11 -8q-78 -84 -147 -84q-78 0 -78 92q0 32 9 74l12 56l-63 -34l-5 14q48 25 72 40l57 264q27 127 66.5 186.5t96.5 59.5q40 0 62 -28t22 -80q0 -214 -252 -387l-23 -105q-10 -47 -10 -75q0 -58 45 -58q55 0 125 73zM184 508l-52 -241q206 152 206 384
q0 75 -45 75q-32 0 -53 -34q-20 -33 -30 -72q-4 -15 -26 -112z" />
    <glyph glyph-name="uni2116" unicode="&#x2116;" horiz-adv-x="1015" 
d="M601 728h60q-45 -121 -88 -318l-90 -422h-9l-292 641l-66 -311q-42 -200 -47 -318h-60q43 117 87 318l72 341l-30 66l1 3h107l253 -570l54 252q43 202 48 318zM1025 505q0 -94 -62 -159.5t-150 -65.5q-73 0 -118 45t-45 119q0 93 61.5 158.5t150.5 65.5q73 0 118 -45
t45 -118zM953 529q0 57 -24.5 91t-66.5 34q-58 3 -99.5 -73t-40.5 -161q0 -57 25 -91.5t67 -34.5q58 -3 99 73t40 162zM660 180l3 18h286l-4 -18h-285z" />
    <glyph glyph-name="uni2117" unicode="&#x2117;" horiz-adv-x="633" 
d="M631 469q2 -109 -80 -190.5t-191 -79.5q-110 -2 -192 79.5t-80 190.5q-2 108 80 190.5t192 80.5q109 2 191 -80.5t80 -190.5zM609 471q2 101 -73.5 177t-175.5 74q-101 2 -176.5 -74t-73.5 -177q-2 -101 73.5 -177.5t176.5 -74.5q100 -2 175.5 74.5t73.5 177.5zM491 541
q0 -46 -35.5 -74.5t-93.5 -28.5q-22 0 -35 3v-139h-29v331h64q62 0 95.5 -23.5t33.5 -68.5zM459 535q0 41 -25.5 63t-71.5 22h-35v-165q13 -3 34 -3q47 0 72.5 21.5t25.5 61.5z" />
    <glyph glyph-name="trademark" unicode="&#x2122;" horiz-adv-x="756" 
d="M288 713h-13l-76 -359h-32l76 359h-11q-34 0 -56 -3q-15 -1 -64 -8l14 26h274l2 -26q-43 7 -59 8q-21 3 -55 3zM750 728h8l-44 -374h-33l37 299l-186 -274h-4l-77 275l-40 -137q-26 -91 -43 -163h-26q22 59 52 162l63 212h8l82 -299z" />
    <glyph glyph-name="uni2126" unicode="&#x2126;" horiz-adv-x="845" 
d="M780 58l-18 -58h-287v26q116 85 171 176t55 199q0 142 -77 232.5t-202 90.5q-126 0 -202.5 -88.5t-76.5 -230.5q0 -105 54.5 -197t171.5 -182v-26h-287l-18 58q88 -20 201 -20h60q-125 100 -183 182q-57 82 -57 181q-2 145 95.5 243t241.5 96q152 0 244.5 -92.5
t92.5 -242.5q0 -99 -58 -184q-60 -86 -182 -183h60q113 0 201 20z" />
    <glyph glyph-name="estimated" unicode="&#x212e;" horiz-adv-x="796" 
d="M734 200l16 -8q-49 -97 -134.5 -151.5t-189.5 -54.5q-98 -2 -182 50t-131 140t-46 188q-2 151 105 262t254 108q150 3 256.5 -110t103.5 -270h-591v-229q0 -30 25 -49q94 -70 206 -70q99 0 180.5 51.5t127.5 142.5zM195 591v-217h462v217q0 33 -25 53q-92 70 -206 70
t-206 -70q-25 -19 -25 -53z" />
    <glyph glyph-name="oneeighth" unicode="&#x215b;" horiz-adv-x="751" 
d="M244 735h4l-92 -435h-60l75 356q-25 -12 -66 -23l2 9q73 21 137 93zM29 0l594 728h25l-594 -728h-25zM691 120q0 -54 -43.5 -90t-103.5 -36q-52 0 -88.5 26.5t-36.5 68.5q0 44 31.5 78.5t83.5 48.5q-57 44 -57 95q0 53 38 88t93 35q45 0 76 -25t31 -63t-27.5 -68
t-73.5 -45q77 -54 77 -113zM527 334q0 -45 59 -83l16 -11q68 43 68 114q0 31 -17 50t-46 19q-35 0 -57.5 -26t-22.5 -63zM640 98q0 47 -64 90l-23 15l-9 6q-36 -18 -57 -51.5t-21 -72.5q0 -36 22.5 -58t56.5 -22q40 0 67.5 27.5t27.5 65.5z" />
    <glyph glyph-name="threeeighths" unicode="&#x215c;" horiz-adv-x="811" 
d="M46 327l15 37q37 -59 92 -59q46 0 75.5 31.5t29.5 77.5q0 84 -100 105l-1 9l20 5q45 12 72 42t27 69q0 27 -18 43t-47 16q-52 0 -92 -46l-9 6q57 70 128 70q46 0 74 -22t28 -58q0 -39 -30 -68.5t-75 -42.5v-2q35 -10 57.5 -39.5t22.5 -67.5q0 -58 -47 -99t-115 -41
q-52 0 -107 34zM90 0l594 728h25l-594 -728h-25zM751 120q0 -54 -43.5 -90t-103.5 -36q-52 0 -88.5 26.5t-36.5 68.5q0 44 31.5 78.5t83.5 48.5q-57 44 -57 95q0 53 38 88t93 35q45 0 76 -25t31 -63t-27.5 -68t-73.5 -45q77 -54 77 -113zM587 334q0 -45 59 -83l16 -11
q68 43 68 114q0 31 -17 50t-46 19q-35 0 -57.5 -26t-22.5 -63zM700 98q0 47 -64 90l-23 15l-9 6q-36 -18 -57 -51.5t-21 -72.5q0 -36 22.5 -58t56.5 -22q40 0 67.5 27.5t27.5 65.5z" />
    <glyph glyph-name="fiveeighths" unicode="&#x215d;" horiz-adv-x="810" 
d="M336 682h-172l-30 -101q83 -6 127.5 -42t44.5 -97q0 -65 -46 -107t-113 -42q-57 0 -104 34l13 31q32 -53 88 -53q48 0 77.5 32t29.5 82q0 102 -149 110l60 199h197zM88 0l594 728h25l-594 -728h-25zM750 120q0 -54 -43.5 -90t-103.5 -36q-52 0 -88.5 26.5t-36.5 68.5
q0 44 31.5 78.5t83.5 48.5q-57 44 -57 95q0 53 38 88t93 35q45 0 76 -25t31 -63t-27.5 -68t-73.5 -45q77 -54 77 -113zM586 334q0 -45 59 -83l16 -11q68 43 68 114q0 31 -17 50t-46 19q-35 0 -57.5 -26t-22.5 -63zM699 98q0 47 -64 90l-23 15l-9 6q-36 -18 -57 -51.5
t-21 -72.5q0 -36 22.5 -58t56.5 -22q40 0 67.5 27.5t27.5 65.5z" />
    <glyph glyph-name="seveneighths" unicode="&#x215e;" horiz-adv-x="821" 
d="M129 728h250v-4l-233 -425h-63l256 383h-63q-108 0 -169 -14zM94 0l594 728h25l-594 -728h-25zM756 120q0 -54 -43.5 -90t-103.5 -36q-52 0 -88.5 26.5t-36.5 68.5q0 44 31.5 78.5t83.5 48.5q-57 44 -57 95q0 53 38 88t93 35q45 0 76 -25t31 -63t-27.5 -68t-73.5 -45
q77 -54 77 -113zM592 334q0 -45 59 -83l16 -11q68 43 68 114q0 31 -17 50t-46 19q-35 0 -57.5 -26t-22.5 -63zM705 98q0 47 -64 90l-23 15l-9 6q-36 -18 -57 -51.5t-21 -72.5q0 -36 22.5 -58t56.5 -22q40 0 67.5 27.5t27.5 65.5z" />
    <glyph glyph-name="arrowleft" unicode="&#x2190;" horiz-adv-x="837" 
d="M814 364q2 -100 -49 -187.5t-138.5 -139t-187.5 -49.5q-153 -3 -265.5 110t-109.5 266q-3 153 109.5 266t265.5 110q100 2 187.5 -49.5t138.5 -139t49 -187.5zM792 364q3 146 -103 253.5t-250 104.5q-144 3 -250 -104.5t-103 -253.5q-3 -146 103 -253.5t250 -104.5
q144 -3 250 104.5t103 253.5zM677 265q0 -8 -1 -10h-127q-5 22 -24 53q-20 34 -34 48h-136q53 -80 75 -191l-9 -4q-40 52 -112 112q-71 61 -130 91q57 29 130 90q73 62 112 113l9 -4q-22 -111 -75 -191h136q13 13 34 47q19 33 24 54h127q4 -26 -16 -60q-20 -33 -47 -49
q26 -14 45 -43.5t19 -55.5zM602 457h-41q-20 -49 -49 -85h34q17 13 33.5 38t22.5 47zM660 457h-41q-12 -50 -51 -85h28q22 10 41.5 35.5t22.5 49.5zM546 356h-34q29 -36 49 -85h41q-6 22 -22.5 47t-33.5 38zM596 356h-28q39 -35 51 -85h41q-3 24 -22.5 49.5t-41.5 35.5z" />
    <glyph glyph-name="arrowup" unicode="&#x2191;" horiz-adv-x="837" 
d="M814 364q2 -100 -49 -187.5t-138.5 -139t-187.5 -49.5q-153 -3 -265.5 110t-109.5 266q-3 153 109.5 266t265.5 110q100 2 187.5 -49.5t138.5 -139t49 -187.5zM792 364q3 146 -103 253.5t-250 104.5q-144 3 -250 -104.5t-103 -253.5q-3 -146 103 -253.5t250 -104.5
q144 -3 250 104.5t103 253.5zM642 383l-4 -9q-111 22 -191 75v-136q13 -13 47 -34q33 -19 54 -24v-127q-2 -1 -10 -1q-26 0 -55.5 19t-43.5 45q-17 -29 -49 -48q-33 -19 -60 -15v127q22 5 53 24q34 20 48 34v136q-80 -53 -191 -75l-4 9q52 40 112 112q61 71 91 130
q29 -57 90 -130q62 -73 113 -112zM431 258v34q-36 -29 -85 -49v-41q22 6 47 22.5t38 33.5zM532 202v41q-49 20 -85 49v-34q13 -17 38 -33.5t47 -22.5zM431 208v28q-35 -39 -85 -51v-41q24 3 49.5 22.5t35.5 41.5zM532 144v41q-50 12 -85 51v-28q10 -22 35.5 -41.5
t49.5 -22.5z" />
    <glyph glyph-name="arrowright" unicode="&#x2192;" horiz-adv-x="837" 
d="M814 364q2 -100 -49 -187.5t-138.5 -139t-187.5 -49.5q-153 -3 -265.5 110t-109.5 266q-3 153 109.5 266t265.5 110q100 2 187.5 -49.5t138.5 -139t49 -187.5zM792 364q3 146 -103 253.5t-250 104.5q-144 3 -250 -104.5t-103 -253.5q-3 -146 103 -253.5t250 -104.5
q144 -3 250 104.5t103 253.5zM699 364q-59 -30 -130 -91q-72 -60 -112 -112l-9 4q22 111 75 191h-136q-14 -14 -34 -48q-19 -31 -24 -53h-127q-1 2 -1 10q0 26 19 55.5t45 43.5q-29 17 -48 49q-19 33 -15 60h127q5 -21 24 -54q21 -34 34 -47h136q-53 80 -75 191l9 4
q39 -51 112 -113q73 -61 130 -90zM282 372h28q-39 35 -51 85h-41q3 -24 22.5 -49.5t41.5 -35.5zM332 372h34q-29 36 -49 85h-41q6 -22 22.5 -47t33.5 -38zM218 271h41q12 50 51 85h-28q-22 -10 -41.5 -35.5t-22.5 -49.5zM276 271h41q20 49 49 85h-34q-17 -13 -33.5 -38
t-22.5 -47z" />
    <glyph glyph-name="arrowdown" unicode="&#x2193;" horiz-adv-x="837" 
d="M814 364q2 -100 -49 -187.5t-138.5 -139t-187.5 -49.5q-153 -3 -265.5 110t-109.5 266q-3 153 109.5 266t265.5 110q100 2 187.5 -49.5t138.5 -139t49 -187.5zM792 364q3 146 -103 253.5t-250 104.5q-144 3 -250 -104.5t-103 -253.5q-3 -146 103 -253.5t250 -104.5
q144 -3 250 104.5t103 253.5zM638 354l4 -9q-51 -39 -113 -112q-61 -73 -90 -130q-30 59 -91 130q-60 72 -112 112l4 9q111 -22 191 -75v136q-14 14 -48 34q-31 19 -53 24v127q26 4 60 -16q33 -20 49 -47q14 26 43.5 45t55.5 19q8 0 10 -1v-127q-21 -5 -54 -24
q-34 -21 -47 -34v-136q80 53 191 75zM346 584v-41q50 -12 85 -51v28q-10 22 -35.5 41.5t-49.5 22.5zM447 520v-28q35 39 85 51v41q-24 -3 -49.5 -22.5t-35.5 -41.5zM346 526v-41q49 -20 85 -49v34q-13 17 -38 33.5t-47 22.5zM447 470v-34q36 29 85 49v41q-22 -6 -47 -22.5
t-38 -33.5z" />
    <glyph glyph-name="uni2196" unicode="&#x2196;" horiz-adv-x="837" 
d="M814 364q2 -100 -49 -187.5t-138.5 -139t-187.5 -49.5q-153 -3 -265.5 110t-109.5 266q-3 153 109.5 266t265.5 110q100 2 187.5 -49.5t138.5 -139t49 -187.5zM792 364q3 146 -103 253.5t-250 104.5q-144 3 -250 -104.5t-103 -253.5q-3 -146 103 -253.5t250 -104.5
q144 -3 250 104.5t103 253.5zM594 363l90 -90q-25 -36 -91 -36q-17 0 -30 3q3 -14 3 -30q0 -66 -36 -91l-90 90q12 22 20 55q10 34 10 58l-97 96q-17 -94 -81 -188l-9 3q4 25 4 72q0 145 -32 243q98 -32 243 -32q47 0 72 4l3 -9q-94 -64 -188 -81l96 -97q22 0 58 9
q35 10 55 21zM534 293q47 0 86 22l-28 28q-49 -20 -96 -25l24 -24q3 -1 14 -1zM460 211l28 -28q22 39 22 86q0 11 -1 14l-24 24q-5 -47 -25 -96zM590 253q43 0 71 20l-29 30q-45 -29 -97 -24l21 -21q13 -5 34 -5zM550 213q0 21 -5 34l-21 21q5 -52 -24 -97l30 -29
q20 28 20 71z" />
    <glyph glyph-name="uni2197" unicode="&#x2197;" horiz-adv-x="837" 
d="M814 364q2 -100 -49 -187.5t-138.5 -139t-187.5 -49.5q-153 -3 -265.5 110t-109.5 266q-3 153 109.5 266t265.5 110q100 2 187.5 -49.5t138.5 -139t49 -187.5zM792 364q3 146 -103 253.5t-250 104.5q-144 3 -250 -104.5t-103 -253.5q-3 -146 103 -253.5t250 -104.5
q144 -3 250 104.5t103 253.5zM380 516q145 0 243 32q-32 -98 -32 -243q0 -47 4 -72l-9 -3q-64 94 -81 188l-97 -96q0 -22 9 -58q10 -35 21 -55l-90 -90q-36 25 -36 91q0 16 3 30q-13 -3 -30 -3q-66 0 -91 36l90 90q20 -11 55 -21q36 -9 58 -9l96 97q-94 17 -188 81l3 9
q25 -4 72 -4zM358 294l24 24q-47 5 -96 25l-28 -28q39 -22 86 -22q11 0 14 1zM393 307l-24 -24q-1 -3 -1 -14q0 -47 22 -86l28 28q-20 49 -25 96zM288 253q21 0 34 5l21 21q-52 -5 -97 24l-29 -30q28 -20 71 -20zM328 213q0 -43 20 -71l30 29q-29 45 -24 97l-21 -21
q-5 -13 -5 -34z" />
    <glyph glyph-name="uni2198" unicode="&#x2198;" horiz-adv-x="837" 
d="M814 364q2 -100 -49 -187.5t-138.5 -139t-187.5 -49.5q-153 -3 -265.5 110t-109.5 266q-3 153 109.5 266t265.5 110q100 2 187.5 -49.5t138.5 -139t49 -187.5zM792 364q3 146 -103 253.5t-250 104.5q-144 3 -250 -104.5t-103 -253.5q-3 -146 103 -253.5t250 -104.5
q144 -3 250 104.5t103 253.5zM591 423q0 -145 32 -243q-98 32 -243 32q-47 0 -72 -4l-3 9q94 64 188 81l-96 97q-24 0 -58 -10q-33 -8 -55 -20l-90 90q25 36 91 36q17 0 30 -3q-3 14 -3 30q0 66 36 91l90 -90q-11 -20 -21 -55q-9 -36 -9 -58l97 -96q17 94 81 188l9 -3
q-4 -25 -4 -72zM328 515q0 -19 5 -34l21 -21q-5 52 24 97l-30 29q-20 -28 -20 -71zM418 517l-28 28q-22 -39 -22 -86q0 -11 1 -14l24 -24q5 47 25 96zM288 475q-43 0 -71 -20l29 -30q45 29 97 24l-21 21q-15 5 -34 5zM344 435q-47 0 -86 -22l28 -28q49 20 96 25l-24 24
q-3 1 -14 1z" />
    <glyph glyph-name="uni2199" unicode="&#x2199;" horiz-adv-x="837" 
d="M814 364q2 -100 -49 -187.5t-138.5 -139t-187.5 -49.5q-153 -3 -265.5 110t-109.5 266q-3 153 109.5 266t265.5 110q100 2 187.5 -49.5t138.5 -139t49 -187.5zM792 364q3 146 -103 253.5t-250 104.5q-144 3 -250 -104.5t-103 -253.5q-3 -146 103 -253.5t250 -104.5
q144 -3 250 104.5t103 253.5zM593 491q66 0 91 -36l-90 -90q-22 12 -55 20q-34 10 -58 10l-96 -97q94 -17 188 -81l-3 -9q-25 4 -72 4q-145 0 -243 -32q32 98 32 243q0 47 -4 72l9 3q64 -94 81 -188l97 96q0 24 -10 58q-8 33 -20 55l90 90q36 -25 36 -91q0 -16 -3 -30
q13 3 30 3zM550 515q0 43 -20 71l-30 -29q29 -45 24 -97l21 21q5 15 5 34zM485 421l24 24q1 3 1 14q0 47 -22 86l-28 -28q20 -49 25 -96zM590 475q-19 0 -34 -5l-21 -21q52 5 97 -24l29 30q-28 20 -71 20zM520 434l-24 -24q47 -5 96 -25l28 28q-39 22 -86 22q-11 0 -14 -1z
" />
    <glyph glyph-name="partialdiff" unicode="&#x2202;" horiz-adv-x="520" 
d="M495 418q2 -188 -75.5 -310.5t-197.5 -119.5q-84 0 -135.5 56t-51.5 148q0 103 64 168t164 65t175 -82q3 35 3 73q0 142 -41.5 220t-119.5 78q-44 0 -92 -24t-79 -62l-12 12q82 100 194 100q98 0 151 -83.5t53 -238.5zM436 317q-71 88 -167 88q-84 0 -132 -54.5
t-48 -148.5q0 -87 40 -143.5t102 -56.5q75 0 131.5 87.5t73.5 227.5z" />
    <glyph glyph-name="uni2206" unicode="&#x2206;" horiz-adv-x="639" 
d="M282 740l287 -740h-578l287 740h4zM505 18l-243 631l-245 -631h488z" />
    <glyph glyph-name="product" unicode="&#x220f;" horiz-adv-x="712" 
d="M598 708v-768h-52v770h-64h-150h-64v-770h-52v768q-29 -1 -110 -10l12 30h578l12 -30q-57 6 -110 10z" />
    <glyph glyph-name="summation" unicode="&#x2211;" horiz-adv-x="680" 
d="M597 -22h2l-16 -38h-479v4l239 396l-231 384v4h459l12 -38h-2q-77 10 -147 15q-78 5 -165 5h-89l225 -369l-233 -383h104q186 0 321 20z" />
    <glyph glyph-name="minus" unicode="&#x2212;" horiz-adv-x="508" 
d="M67 354l4 20h408l-4 -20h-408z" />
    <glyph glyph-name="uni2215" unicode="&#x2215;" horiz-adv-x="421" 
d="M-78 0l594 728h25l-594 -728h-25z" />
    <glyph glyph-name="uni2219" unicode="&#x2219;" horiz-adv-x="309" 
d="M149 225l-60 77l82 64l60 -77z" />
    <glyph glyph-name="radical" unicode="&#x221a;" horiz-adv-x="501" 
d="M545 713l20 -6l-271 -719h-4l-187 409h-82v16h120l160 -349z" />
    <glyph glyph-name="infinity" unicode="&#x221e;" horiz-adv-x="821" 
d="M800 355q0 -63 -46 -109t-110 -46q-65 0 -115 32t-102 99q-52 -67 -102 -99t-115 -32q-64 0 -110 46t-46 109t46 109t110 46q65 0 115 -32t102 -99q52 67 102 99t115 32q64 0 110 -46t46 -109zM409 356q-57 74 -96.5 103t-102.5 31q-53 0 -91.5 -39.5t-38.5 -95.5
t38.5 -95.5t91.5 -39.5q42 0 76 17q32 16 58 42t65 77zM774 355q0 56 -38.5 95.5t-91.5 39.5q-41 0 -77 -17q-31 -16 -57.5 -42.5t-64.5 -76.5q57 -74 96.5 -103t102.5 -31q53 0 91.5 39.5t38.5 95.5z" />
    <glyph glyph-name="integral" unicode="&#x222b;" horiz-adv-x="288" 
d="M-82 -228v14q60 9 98.5 56t46.5 123l69 663q10 90 53 138t112 48q63 0 119 -35l-6 -12q-47 23 -99 23q-115 0 -132 -170l-68 -655q-8 -81 -58 -131t-135 -62z" />
    <glyph glyph-name="approxequal" unicode="&#x2248;" horiz-adv-x="508" 
d="M269 422q-59 29 -91 29q-55 0 -95 -31l-14 16q47 35 109 35q33 0 101 -31q61 -29 90 -29q55 0 95 31l14 -16q-47 -35 -109 -35q-36 0 -100 31zM269 279q-59 29 -91 29q-55 0 -95 -31l-14 16q47 35 109 35q33 0 101 -31q61 -29 90 -29q55 0 95 31l14 -16q-47 -35 -109 -35
q-36 0 -100 31z" />
    <glyph glyph-name="notequal" unicode="&#x2260;" horiz-adv-x="508" 
d="M477 426h-153l-77 -124h230v-20h-242l-82 -132l-18 12l74 120h-140v20h153l77 124h-230v20h242l82 132l18 -12l-74 -120h140v-20z" />
    <glyph glyph-name="lessequal" unicode="&#x2264;" horiz-adv-x="508" 
d="M445 544l-379 -180l379 -180l-10 -18l-398 189v18l398 189zM37 12v20h408v-20h-408z" />
    <glyph glyph-name="greaterequal" unicode="&#x2265;" horiz-adv-x="508" 
d="M62 562l398 -189v-18l-398 -189l-10 18l379 180l-379 180zM52 12v20h408v-20h-408z" />
    <glyph glyph-name="uni25B4" unicode="&#x25b4;" horiz-adv-x="323" 
d="M37 251l127 227l127 -227h-254z" />
    <glyph glyph-name="uni25B8" unicode="&#x25b8;" horiz-adv-x="328" 
d="M276 237l-227 127l227 128v-255z" />
    <glyph glyph-name="uni25BE" unicode="&#x25be;" horiz-adv-x="322" 
d="M198 251l-127 227h254z" />
    <glyph glyph-name="uni25C2" unicode="&#x25c2;" horiz-adv-x="323" 
d="M87 237v255l227 -128z" />
    <glyph glyph-name="lozenge" unicode="&#x25ca;" horiz-adv-x="504" 
d="M276 740l224 -370l-224 -370h-4l-224 370l224 370h4zM254 64l186 306l-186 306l-186 -306z" />
    <glyph glyph-name="uni2610" unicode="&#x2610;" horiz-adv-x="726" 
d="M127 596h598l-126 -596h-598zM581 20l118 556h-554l-118 -556h554z" />
    <glyph glyph-name="uni2611" unicode="&#x2611;" horiz-adv-x="726" 
d="M340 180q158 232 452 543l18 -13l-489 -590q-49 138 -116 246l41 25q49 -77 94 -211zM568 20l90 428l30 36l-103 -484h-598l127 596h481l-16 -20h-448l-117 -556h554z" />
    <glyph glyph-name="uni2612" unicode="&#x2612;" horiz-adv-x="726" 
d="M127 596h598l-126 -596h-598zM581 20l118 556h-554l-118 -556h554zM584 466l-206 -169l131 -169l-16 -14l-132 169l-206 -169l-12 17l205 168l-131 169l16 14l132 -169l206 169z" />
    <glyph glyph-name="uni2661" unicode="&#x2661;" horiz-adv-x="964" 
d="M953 399q0 -96 -47 -167q-45 -66 -113.5 -114.5t-182.5 -102.5q-133 -64 -190 -164l-14 -6q0 27 -14 50q-12 21 -31.5 39t-67.5 55l-22 17q-78 60 -121 100q-97 92 -97 203q-2 119 82.5 214t197.5 92q148 0 197 -119q42 53 97.5 85.5t115.5 32.5q94 0 152 -60t58 -155z
M901 392q0 90 -49 148t-126 58q-62 0 -121 -50q-57 -48 -86 -120l-10 -3q-12 78 -61.5 125t-125.5 47q-91 2 -155 -85.5t-62 -196.5q0 -65 27 -116q28 -52 66 -89q42 -39 107 -88q1 -1 6 -4.5t12 -9t15 -11.5q61 -44 85 -93q76 76 170 123q107 53 164 92q144 101 144 273z
" />
    <glyph glyph-name="heart" unicode="&#x2665;" horiz-adv-x="964" 
d="M953 399q0 -96 -47 -167q-45 -66 -113.5 -114.5t-182.5 -102.5q-133 -64 -190 -164l-14 -6q0 27 -14 50q-12 21 -31.5 39t-67.5 55l-22 17q-78 60 -121 100q-97 92 -97 203q-2 119 82.5 214t197.5 92q148 0 197 -119q42 53 97.5 85.5t115.5 32.5q94 0 152 -60t58 -155z
" />
    <glyph glyph-name="uni2713" unicode="&#x2713;" horiz-adv-x="726" 
d="M792 723l18 -13l-489 -590q-49 138 -116 246l41 25q49 -77 94 -211q158 232 452 543z" />
    <glyph glyph-name="uni275B" unicode="&#x275b;" horiz-adv-x="290" 
d="M17 166q-2 92 76.5 181t188.5 120l2 -10q-82 -29 -138 -92.5t-56 -128.5q0 -54 38.5 -90t98.5 -37l-23 -109q-90 4 -138.5 49t-48.5 117z" />
    <glyph glyph-name="uni275C" unicode="&#x275c;" horiz-adv-x="291" 
d="M55 261l-2 10q82 29 138 92.5t56 128.5q0 55 -39 90.5t-102 36.5l23 109q92 -2 141.5 -47.5t49.5 -118.5q2 -92 -76.5 -181t-188.5 -120z" />
    <glyph glyph-name="uni275D" unicode="&#x275d;" horiz-adv-x="531" 
d="M17 166q-2 92 76.5 181t188.5 120l2 -10q-81 -29 -138 -93.5t-57 -128.5q0 -52 36 -87t96 -39l-23 -109q-87 5 -134 50.5t-47 115.5zM256 166q-2 93 76 181t189 120l2 -10q-82 -29 -138.5 -92.5t-56.5 -128.5q0 -55 39.5 -90.5t102.5 -36.5l-23 -109q-92 2 -141.5 47.5
t-49.5 118.5z" />
    <glyph glyph-name="uni275E" unicode="&#x275e;" horiz-adv-x="529" 
d="M55 261l-2 10q82 29 138 92.5t56 128.5q0 55 -39 90.5t-102 36.5l23 109q92 -2 141.5 -47.5t49.5 -118.5q2 -92 -76.5 -181t-188.5 -120zM293 261l-2 10q81 29 138 93.5t57 128.5q0 52 -36 87t-95 39l23 109q87 -5 133.5 -50t46.5 -116q2 -93 -76 -181t-189 -120z" />
    <glyph glyph-name="uni2766" unicode="&#x2766;" horiz-adv-x="1027" 
d="M702 743q-95 -113 -156 -319q98 126 220 126q66 0 107 -38.5t41 -108.5q0 -60 -29 -112q-27 -48 -66.5 -85.5t-113.5 -93.5q-61 -48 -89 -72q-76 -69 -76 -137q0 -41 23.5 -64t63.5 -23q72 0 164 101l10 -4q-121 -151 -264 -151q-109 0 -194 72q-85 70 -133 183t-48 231
q0 122 49.5 205t124.5 83q78 0 124 -97q-56 -191 -56 -317q0 -131 41 -199q-11 46 -11 116q-2 190 65.5 394t178.5 320l-22 9q-92 39 -146.5 55.5t-107.5 16.5q-82 0 -141.5 -41t-59.5 -103q0 -16 8 -43l-47 -16q-10 27 -10 56q0 77 68.5 129t166.5 52q60 0 122.5 -19.5
t161.5 -64.5l26 -12q111 108 246 108q60 0 94.5 -20.5t34.5 -56.5q0 -45 -52 -78.5t-122 -33.5t-196 52zM718 762q124 -55 188 -55q56 0 89.5 29t33.5 66q0 29 -26.5 45.5t-71.5 16.5q-117 0 -213 -102z" />
    <glyph glyph-name="uniFB00" unicode="&#xfb00;" horiz-adv-x="639" 
d="M820 768l-9 -12q-47 24 -99 24q-112 0 -143 -150l-21 -99h150l-17 -22h-138l-111 -519q-20 -92 -90.5 -148.5t-172.5 -69.5l-1 12q62 13 106.5 65.5t61.5 133.5l112 526h-211l-111 -519q-20 -92 -90.5 -148.5t-172.5 -69.5l-1 12q61 13 105.5 65.5t62.5 133.5l112 526
h-70l5 22h69l20 92q20 92 72.5 140.5t130.5 48.5q73 0 135 -41l-9 -12q-39 19 -90 19q-111 0 -143 -150l-21 -97h212l20 94q20 92 72.5 140.5t130.5 48.5q80 0 144 -46z" />
    <glyph glyph-name="fi" unicode="&#xfb01;" horiz-adv-x="561" 
d="M516 531l39 11h4l-115 -542h-95l109 509h-222l-110 -519q-20 -92 -90.5 -148.5t-172.5 -69.5l-1 12q61 13 105.5 65.5t62.5 133.5l112 526h-70l5 22h70l20 94q19 92 71.5 140.5t130.5 48.5q67 0 131 -39l-8 -13q-39 18 -86 18q-112 0 -144 -150l-21 -99h275zM533 626
l-57 75l78 61l58 -75z" />
    <glyph glyph-name="fl" unicode="&#xfb02;" horiz-adv-x="560" 
d="M611 810h4l-172 -810h-95l162 759q-47 21 -98 21q-118 0 -150 -150l-21 -99h142l-17 -22h-130l-110 -519q-20 -92 -90.5 -148.5t-172.5 -69.5l-1 12q61 13 105.5 65.5t62.5 133.5l112 526h-70l5 22h70l20 94q19 92 73 140.5t135 48.5q77 0 143 -41z" />
    <glyph glyph-name="uniFB03" unicode="&#xfb03;" horiz-adv-x="868" 
d="M822 531l40 11h4l-116 -542h-94l108 509h-221l-111 -519q-20 -92 -90.5 -148.5t-172.5 -69.5l-1 12q62 13 106.5 65.5t61.5 133.5l112 526h-211l-111 -519q-20 -92 -90.5 -148.5t-172.5 -69.5l-1 12q61 13 105.5 65.5t62.5 133.5l112 526h-70l5 22h69l20 92
q20 92 72.5 140.5t130.5 48.5q73 0 135 -41l-9 -12q-39 19 -90 19q-111 0 -143 -150l-21 -97h212l20 94q20 92 72.5 140.5t130.5 48.5q66 0 131 -39l-8 -13q-41 18 -87 18q-112 0 -143 -150l-21 -99h274zM840 626l-58 75l79 61l57 -75z" />
    <glyph glyph-name="uniFEFF" unicode="&#xfeff;" 
 />
    <glyph glyph-name="NULL" 
 />
    <glyph glyph-name="i.latn_TRK" horiz-adv-x="215" 
d="M3 0l110 515l96 27h4l-115 -542h-95zM185 619l-57 75l79 61l57 -74z" />
    <glyph glyph-name="Ldot.latn_CAT" horiz-adv-x="455" 
d="M382 75h2l-35 -75h-334l155 728h102l-151 -710h18q108 0 243 57zM377 341l-60 77l82 64l60 -77z" />
    <glyph glyph-name="ldot.latn_CAT" horiz-adv-x="307" 
d="M3 0l166 780l97 30h4l-172 -810h-95zM277 321l-60 77l82 64l60 -77z" />
    <glyph glyph-name="zero.numr" horiz-adv-x="392" 
d="M81 459q-1 68 22.5 131t69.5 104t103 39q64 0 101.5 -44t37.5 -121q1 -107 -54.5 -192.5t-139.5 -82.5q-64 0 -102 44.5t-38 121.5zM350 604q0 118 -71 118q-41 0 -71 -49q-29 -46 -46 -119q-16 -68 -16 -131q0 -57 18.5 -88t53.5 -31q38 -3 70 48.5t47.5 120.5t14.5 131
z" />
    <glyph glyph-name="one.numr" horiz-adv-x="191" 
d="M233 735h4l-92 -435h-60l75 356q-25 -12 -66 -23l2 9q73 21 137 93z" />
    <glyph glyph-name="two.numr" horiz-adv-x="311" 
d="M91 344h35q99 0 179 11l-28 -56h-248l1 3l38 35q112 100 164 166t52 127q0 35 -18 53.5t-51 18.5q-56 0 -101 -62l-10 5q53 88 138 88q48 0 79 -27.5t31 -72.5q0 -39 -29 -80q-27 -38 -78 -83q-58 -49 -154 -126z" />
    <glyph glyph-name="three.numr" horiz-adv-x="310" 
d="M44 327l15 37q37 -59 92 -59q46 0 75.5 31.5t29.5 77.5q0 84 -100 105l-1 9l20 5q45 12 72 42t27 69q0 27 -18 43t-47 16q-52 0 -92 -46l-9 6q57 70 128 70q46 0 74 -22t28 -58q0 -39 -30 -68.5t-75 -42.5v-2q35 -10 57.5 -39.5t22.5 -67.5q0 -58 -47 -99t-115 -41
q-52 0 -107 34z" />
    <glyph glyph-name="four.numr" horiz-adv-x="324" 
d="M344 453l-20 -40h-50l-24 -114h-61l24 114h-167l-2 21l283 298h14l-59 -279h62zM83 453h138l40 190z" />
    <glyph glyph-name="five.numr" horiz-adv-x="297" 
d="M333 682h-172l-30 -101q83 -6 127.5 -42t44.5 -97q0 -65 -46 -107t-113 -42q-57 0 -104 34l13 31q32 -53 88 -53q48 0 77.5 32t29.5 82q0 102 -149 110l60 199h197z" />
    <glyph glyph-name="six.numr" horiz-adv-x="338" 
d="M70 429q-2 102 78 194.5t185 109.5l2 -9q-87 -21 -144 -118.5t-55 -203.5q0 -47 16.5 -72.5t46.5 -25.5q40 0 64.5 48t24.5 106q0 37 -15.5 58t-43.5 21q-27 0 -52 -19l-6 8q37 34 80 34q45 0 74.5 -31.5t29.5 -79.5q0 -65 -45.5 -110.5t-107.5 -45.5q-61 0 -96.5 37
t-35.5 99z" />
    <glyph glyph-name="seven.numr" horiz-adv-x="281" 
d="M117 728h250v-4l-233 -425h-63l256 383h-63q-108 0 -169 -14z" />
    <glyph glyph-name="eight.numr" horiz-adv-x="330" 
d="M332 419q0 -54 -43.5 -90t-103.5 -36q-52 0 -88.5 26.5t-36.5 68.5q0 44 31.5 78.5t83.5 48.5q-57 44 -57 95q0 53 38 88t93 35q45 0 76 -25t31 -63t-27.5 -68t-73.5 -45q77 -54 77 -113zM168 633q0 -45 59 -83l16 -11q68 43 68 114q0 31 -17 50t-46 19q-35 0 -57.5 -26
t-22.5 -63zM281 397q0 47 -64 90l-23 15l-9 6q-36 -18 -57 -51.5t-21 -72.5q0 -36 22.5 -58t56.5 -22q40 0 67.5 27.5t27.5 65.5z" />
    <glyph glyph-name="nine.numr" horiz-adv-x="338" 
d="M110 293l-2 10q88 23 143 118t55 203q0 47 -16.5 72.5t-46.5 25.5q-39 0 -64 -48t-25 -105q0 -38 16 -58.5t44 -20.5q27 0 52 19l5 -9q-37 -34 -80 -34q-45 0 -74.5 31.5t-29.5 79.5q0 67 44.5 111.5t108.5 44.5q61 0 96.5 -36.5t35.5 -98.5q2 -102 -77.5 -194.5
t-184.5 -110.5z" />
    <glyph glyph-name="zero.dnom" horiz-adv-x="392" 
d="M17 160q-1 68 22.5 131t69.5 104t103 39q64 0 101.5 -44t37.5 -121q1 -107 -54.5 -192.5t-139.5 -82.5q-64 0 -102 44.5t-38 121.5zM286 305q0 118 -71 118q-41 0 -71 -49q-29 -46 -46 -119q-16 -68 -16 -131q0 -57 18.5 -88t53.5 -31q38 -3 70 48.5t47.5 120.5t14.5 131
z" />
    <glyph glyph-name="one.dnom" horiz-adv-x="191" 
d="M169 435h4l-92 -435h-60l75 356q-25 -12 -66 -23l2 9q73 21 137 93z" />
    <glyph glyph-name="two.dnom" horiz-adv-x="311" 
d="M28 45h35q99 0 179 11l-28 -56h-248l1 3l38 35q112 100 164 166t52 127q0 35 -18 53.5t-51 18.5q-56 0 -101 -62l-10 5q53 88 138 88q48 0 79 -27.5t31 -72.5q0 -39 -29 -80q-27 -38 -78 -83q-58 -49 -154 -126z" />
    <glyph glyph-name="three.dnom" horiz-adv-x="310" 
d="M-19 28l15 37q37 -59 92 -59q46 0 75.5 31.5t29.5 77.5q0 84 -100 105l-1 9l20 5q45 12 72 42t27 69q0 27 -18 43t-47 16q-52 0 -92 -46l-9 6q57 70 128 70q46 0 74 -22t28 -58q0 -39 -30 -68.5t-75 -42.5v-2q35 -10 57.5 -39.5t22.5 -67.5q0 -58 -47 -99t-115 -41
q-52 0 -107 34z" />
    <glyph glyph-name="four.dnom" horiz-adv-x="324" 
d="M282 154l-20 -40h-50l-24 -114h-61l24 114h-167l-2 21l283 298h14l-59 -279h62zM21 154h138l40 190z" />
    <glyph glyph-name="five.dnom" horiz-adv-x="297" 
d="M269 383h-172l-30 -101q83 -6 127.5 -42t44.5 -97q0 -65 -46 -107t-113 -42q-57 0 -104 34l13 31q32 -53 88 -53q48 0 77.5 32t29.5 82q0 102 -149 110l60 199h197z" />
    <glyph glyph-name="six.dnom" horiz-adv-x="338" 
d="M6 130q-2 102 78 194.5t185 109.5l2 -9q-87 -21 -144 -118.5t-55 -203.5q0 -47 16.5 -72.5t46.5 -25.5q40 0 64.5 48t24.5 106q0 37 -15.5 58t-43.5 21q-27 0 -52 -19l-6 8q37 34 80 34q45 0 74.5 -31.5t29.5 -79.5q0 -65 -45.5 -110.5t-107.5 -45.5q-61 0 -96.5 37
t-35.5 99z" />
    <glyph glyph-name="seven.dnom" horiz-adv-x="281" 
d="M53 429h250v-4l-233 -425h-63l256 383h-63q-108 0 -169 -14z" />
    <glyph glyph-name="eight.dnom" horiz-adv-x="330" 
d="M269 120q0 -54 -43.5 -90t-103.5 -36q-52 0 -88.5 26.5t-36.5 68.5q0 44 31.5 78.5t83.5 48.5q-57 44 -57 95q0 53 38 88t93 35q45 0 76 -25t31 -63t-27.5 -68t-73.5 -45q77 -54 77 -113zM105 334q0 -45 59 -83l16 -11q68 43 68 114q0 31 -17 50t-46 19q-35 0 -57.5 -26
t-22.5 -63zM218 98q0 47 -64 90l-23 15l-9 6q-36 -18 -57 -51.5t-21 -72.5q0 -36 22.5 -58t56.5 -22q40 0 67.5 27.5t27.5 65.5z" />
    <glyph glyph-name="nine.dnom" horiz-adv-x="338" 
d="M47 -6l-2 10q88 23 143 118t55 203q0 47 -16.5 72.5t-46.5 25.5q-39 0 -64 -48t-25 -105q0 -38 16 -58.5t44 -20.5q27 0 52 19l5 -9q-37 -34 -80 -34q-45 0 -74.5 31.5t-29.5 79.5q0 67 44.5 111.5t108.5 44.5q61 0 96.5 -36.5t35.5 -98.5q2 -102 -77.5 -194.5
t-184.5 -110.5z" />
    <glyph glyph-name="parenleft.case" horiz-adv-x="237" 
d="M40 207q0 153 75 308q77 155 202 267l12 -8q-106 -95 -179.5 -274t-71.5 -337q0 -132 53 -221l-13 -8q-78 120 -78 273z" />
    <glyph glyph-name="parenright.case" horiz-adv-x="236" 
d="M-42 -66l-12 8q106 95 179.5 274t71.5 337q0 132 -53 221l13 8q78 -120 78 -273q0 -155 -76 -308q-75 -155 -201 -267z" />
    <glyph glyph-name="hyphen.case" horiz-adv-x="314" 
d="M66 352l6 33h215l-6 -33h-215z" />
    <glyph glyph-name="bracketleft.case" horiz-adv-x="236" 
d="M135 358q-21 -102 -47 -197q-23 -92 -60 -215h135l-2 -12h-160l180 848h160l-2 -12h-136q-15 -123 -30 -212q-13 -84 -38 -200z" />
    <glyph glyph-name="bracketright.case" horiz-adv-x="236" 
d="M114 782h160l-180 -848h-160l2 12h136q13 105 29 212q15 92 39 200q19 89 46 197q31 113 61 215h-135z" />
    <glyph glyph-name="braceleft.case" horiz-adv-x="283" 
d="M381 782l-2 -12q-80 0 -119.5 -31t-39.5 -99q0 -23 8 -69q8 -45 8 -63q0 -59 -46 -99q-46 -41 -111 -51q46 -9 75.5 -35t29.5 -63q0 -24 -10 -46.5t-38 -70.5t-38.5 -72t-10.5 -50q0 -75 116 -75l-2 -12q-95 0 -139 23.5t-44 74.5q0 29 12.5 58t42.5 78q48 74 48 111
q0 32 -21.5 52t-59.5 21l2 12q53 3 87.5 37.5t34.5 82.5q0 24 -9 64q-10 46 -10 75q0 87 58.5 123t177.5 36z" />
    <glyph glyph-name="braceright.case" horiz-adv-x="284" 
d="M283 364l-2 -12q-54 -3 -88.5 -37t-34.5 -83q0 -10 2 -24t4.5 -26t2.5 -14q11 -46 11 -75q0 -87 -58.5 -123t-178.5 -36l2 12q80 0 119.5 31t39.5 99q0 23 -8 69q-8 45 -8 63q0 59 46 99q46 41 111 51q-46 9 -75 35t-29 63q0 25 10.5 49.5t36.5 67.5q28 48 38.5 72
t10.5 50q0 75 -116 75l2 12q95 0 139 -23.5t44 -74.5q0 -29 -12.5 -58t-42.5 -78q-47 -76 -47 -111q0 -32 21.5 -52t59.5 -21z" />
    <glyph glyph-name="exclamdown.case" horiz-adv-x="222" 
d="M209 749l60 -77l-82 -64l-60 77zM173 519l-64 -519h-106l155 519h15z" />
    <glyph glyph-name="guillemotleft.case" horiz-adv-x="484" 
d="M327 615l-181 -250l77 -236h-12l-152 243l256 243h12zM514 615l-181 -250l77 -236h-12l-152 243l256 243h12z" />
    <glyph glyph-name="uni00AD.case" horiz-adv-x="314" 
d="M66 352l6 33h215l-6 -33h-215z" />
    <glyph glyph-name="periodcentered.case" horiz-adv-x="212" 
d="M123 341l-60 77l82 64l60 -77z" />
    <glyph glyph-name="guillemotright.case" horiz-adv-x="484" 
d="M131 615l152 -243l-256 -243h-12l181 250l-77 236h12zM318 615l152 -243l-256 -243h-12l181 250l-77 236h12z" />
    <glyph glyph-name="questiondown.case" horiz-adv-x="468" 
d="M323 749l60 -77l-82 -64l-60 77zM337 462q0 -31 -21 -58t-74 -72q-34 -29 -65 -60q-60 -60 -60 -133q0 -51 33.5 -81t90.5 -30q83 0 160 72l10 -9q-96 -103 -216 -103q-80 0 -132 41q-50 41 -50 106q0 50 26 91q24 37 57.5 63.5t98.5 67.5q63 39 87.5 62.5t24.5 49.5
q0 17 -13 26.5t-32 9.5q-11 0 -23 -3l-1 14q14 3 25 3q33 0 53.5 -15.5t20.5 -41.5z" />
    <glyph glyph-name="gravecomb.case" 
d="M-166 797l-144 170h118l34 -165z" />
    <glyph glyph-name="acutecomb.case" 
d="M-270 797l-6 5l105 165h118z" />
    <glyph glyph-name="uni0302.case" 
d="M-50 802l-6 -5l-137 92l-186 -92l-6 5l201 165h6z" />
    <glyph glyph-name="tildecomb.case" 
d="M-376 809l-10 3q38 111 110 111q30 0 97 -31q57 -27 80 -27q45 0 76 58l9 -2q-36 -112 -110 -112q-32 0 -95 31q-59 27 -82 27q-47 0 -75 -58z" />
    <glyph glyph-name="uni0304.case" 
d="M-360 824l7 32h314l-7 -32h-314z" />
    <glyph glyph-name="uni0306.case" 
d="M-346 957l9 3q9 -42 45.5 -68.5t87.5 -26.5q52 0 99 26.5t75 68.5l9 -3q-32 -67 -82 -107.5t-113 -40.5t-94.5 40t-35.5 108z" />
    <glyph glyph-name="uni0307.case" 
d="M-211 811l-60 77l82 64l60 -77z" />
    <glyph glyph-name="uni0308.case" 
d="M-314 811l-51 66l70 54l50 -66zM-118 811l-51 66l70 54l50 -66z" />
    <glyph glyph-name="uni030A.case" 
d="M-309 897q0 44 31.5 72t77.5 28t77.5 -28t31.5 -72t-31.5 -72t-77.5 -28t-77.5 28t-31.5 72zM-136 897q0 40 -17 63.5t-47 23.5t-47 -23.5t-17 -63.5t17 -63.5t47 -23.5t47 23.5t17 63.5z" />
    <glyph glyph-name="uni030B.case" 
d="M-361 797l-7 5l108 165h101zM-225 797l-6 5l108 165h101z" />
    <glyph glyph-name="uni030C.case" 
d="M-21 967l6 -5l-201 -165h-6l-128 165l6 5l137 -92z" />
    <glyph glyph-name="uni0326.case" 
d="M-269 -276l-5 6q34 17 53.5 44t19.5 56q0 41 -48 71l56 50q55 -27 55 -81q0 -43 -36.5 -82.5t-94.5 -63.5z" />
    <glyph glyph-name="uni0327.case" 
d="M-123 -131q0 -39 -32.5 -65t-80.5 -26q-56 0 -94 25l5 9q8 -5 31 -10.5t38 -5.5q32 0 54 16t22 39q0 19 -19 32t-51 14h-25l69 103h20l-35 -52q46 -5 72 -26.5t26 -52.5z" />
    <glyph glyph-name="uni0328.case" 
d="M-318 -161q0 43 36.5 79.5t116.5 82.5h15q-97 -81 -97 -143q0 -23 14 -35t36 -12q21 0 63 14l3 -5q-58 -42 -116 -42q-33 0 -52 17t-19 44z" />
    <glyph glyph-name="endash.case" horiz-adv-x="465" 
d="M58 374l4 18h390l-4 -18h-390z" />
    <glyph glyph-name="emdash.case" horiz-adv-x="755" 
d="M58 374l4 18h680l-4 -18h-680z" />
    <glyph glyph-name="bullet.case" horiz-adv-x="316" 
d="M171 298l-87 111l116 91l87 -111z" />
    <glyph glyph-name="guilsinglleft.case" horiz-adv-x="298" 
d="M323 600l-181 -250l77 -236h-12l-152 243l256 243h12z" />
    <glyph glyph-name="guilsinglright.case" horiz-adv-x="297" 
d="M130 600l152 -243l-256 -243h-12l181 250l-77 236h12z" />
    <glyph glyph-name="A_A" horiz-adv-x="963" 
d="M762 239h-261l-19 -31l35 -208h-104l-38 239h-260q-81 -148 -104 -239h-68q45 67 108 172l77 128l11 19l251 425h3l84 -505l299 505h4l123 -744h-103zM511 257h248l-53 330zM125 257h247l-53 329l-162 -274z" />
    <glyph glyph-name="A_N_D" horiz-adv-x="898" 
d="M48 201h-42q2 3 64 101q6 11 27 44l117 192h6l62 -337h-57l-19 106h-114q-36 -65 -44 -106zM321 201h-33q21 53 39 144l32 150l-16 33v3h61l114 -238l20 93q19 87 22 145h35q-21 -55 -39 -145l-41 -191h-9l-136 277l-27 -127q-19 -88 -22 -144zM885 404q0 -89 -61.5 -146
t-157.5 -57h-107l70 330h112q66 0 105 -34.5t39 -92.5zM825 412q0 48 -24.5 77t-65.5 29h-52l-64 -302q18 -3 57 -3q65 0 107 60.5t42 138.5zM180 454l-67 -111l-13 -23h104zM12 120l3 14h782l-3 -14h-782z" />
    <glyph glyph-name="C_A" horiz-adv-x="1179" 
d="M1016 0l-38 239h-260q-80 -138 -105 -239h-61l93 151q-63 -74 -141 -118.5t-155 -44.5q-130 0 -211.5 86t-81.5 226q-1 116 48.5 218t139.5 163t198 59q83 0 150 -37t107 -102l-56 -41q-28 76 -79 120t-118 44q-82 0 -146 -63q-64 -61 -99 -160t-35 -198
q0 -127 60.5 -199t164.5 -72q76 -1 168.5 63.5t138.5 150.5l294 498h4l123 -744h-103zM728 257h247l-53 330l-162 -275z" />
    <glyph glyph-name="C_O_period" horiz-adv-x="1052" 
d="M56 300q-1 116 48.5 218t139.5 163t198 59q83 0 150 -37t107 -102l-56 -41q-28 76 -79 120t-118 44q-82 0 -146 -63q-64 -61 -99 -160t-35 -198q0 -126 61 -199t164 -73q136 0 231 118l12 -8q-118 -153 -285 -153q-130 0 -211.5 86t-81.5 226zM689 320q0 89 58.5 152.5
t142.5 63.5q70 0 113.5 -43t43.5 -111q0 -89 -58.5 -152.5t-142.5 -63.5q-70 0 -113.5 43t-43.5 111zM984 398q0 57 -25 91t-68 34q-59 2 -99 -68t-39 -152q0 -56 25 -90t68 -34q58 -3 98.5 67.5t39.5 151.5zM797 -21l-56 72l76 60l57 -72z" />
    <glyph glyph-name="D_O" horiz-adv-x="1156" 
d="M1143 427q2 -115 -50.5 -217t-146.5 -163t-205 -59q-130 0 -212 79q-109 -67 -252 -67h-262l155 728h259q116 0 195 -53q95 65 208 65q136 0 223.5 -85.5t87.5 -227.5zM1035 458q0 123 -56 194.5t-154 71.5t-173 -72q77 -74 77 -194q0 -116 -43 -210.5t-121 -155.5
q63 -88 175 -88q88 0 155 66q69 69 104 172q36 106 36 216zM290 16q123 0 211 82q-62 82 -62 202q0 101 39 192t109 154q-60 66 -169 66h-149l-146 -687q41 -9 167 -9zM539 138q106 132 106 334q0 81 -32 137q-48 -63 -74.5 -149.5t-26.5 -179.5q0 -80 27 -142z" />
    <glyph glyph-name="D_O_G" horiz-adv-x="1523" 
d="M1261 312l-10 18h247l-58 -270q-114 -72 -246 -72q-139 0 -225 67q-97 -67 -216 -67q-135 0 -222 81q-109 -69 -254 -69h-262l155 728h259q119 0 196 -54q96 66 216 66q123 0 206 -66q96 66 216 66q175 0 263 -139l-56 -42q-28 76 -83.5 120.5t-128.5 44.5
q-104 0 -180 -79q78 -88 78 -217q0 -101 -39.5 -191t-109.5 -153q67 -79 186 -79q82 0 150 43l55 264h-137zM943 78q-82 79 -82 216q0 106 40.5 199.5t113.5 155.5q-67 75 -179 75q-104 0 -183 -73q76 -73 76 -193q0 -114 -42 -208.5t-120 -155.5q69 -90 191 -90
q105 0 185 74zM290 16q124 0 213 83q-64 80 -64 202q0 101 39.5 191t109.5 153q-58 67 -170 67h-149l-146 -687q41 -9 167 -9zM541 140q104 132 104 332q0 79 -31 137q-102 -130 -102 -323q0 -82 29 -146zM1045 605q-98 -132 -98 -329q0 -90 35 -155q100 130 100 321
q0 96 -37 163z" />
    <glyph glyph-name="D_O_O" horiz-adv-x="1580" 
d="M1566 427q2 -115 -50.5 -217t-146.5 -163t-205 -59q-114 0 -197 66q-95 -66 -214 -66q-135 0 -222 81q-109 -69 -254 -69h-262l155 728h259q119 0 196 -54q97 66 217 66q122 0 205 -66q93 66 208 66q136 0 223.5 -85.5t87.5 -227.5zM759 4q103 0 183 74q-80 85 -80 222
q0 103 40 194.5t111 153.5q-64 76 -176 76q-105 0 -184 -73q76 -70 76 -193q0 -114 -42 -208t-119 -155q66 -91 191 -91zM1459 458q0 120 -56 193q-55 73 -154 73t-176 -74q83 -86 83 -222q0 -105 -41.5 -197t-115.5 -153q63 -74 165 -74q64 -2 120.5 38t94 105.5
t59.5 147.5t21 163zM290 16q124 0 213 83q-64 80 -64 202q0 101 39.5 191t109.5 153q-61 67 -170 67h-149l-146 -687q41 -9 167 -9zM974 114q49 62 75.5 148t26.5 180q0 98 -38 169q-49 -64 -76 -151.5t-27 -179.5q0 -96 39 -166zM541 141q104 130 104 331q0 80 -31 136
q-101 -131 -101 -322q0 -82 28 -145z" />
    <glyph glyph-name="E_A" horiz-adv-x="1010" 
d="M847 0l-38 239h-261l-141 -239h-392l155 728h395l-1 -63h-2q-116 45 -244 45h-50l-68 -322h43q146 0 197 20h1l-12 -62h-2q-50 24 -188 24h-43l-74 -352h51q147 0 257 60l393 666h4l123 -744h-103zM558 257h248l-53 330z" />
    <glyph glyph-name="E_T" horiz-adv-x="1006" 
d="M15 0l155 728h395l-1 -63h-2q-116 45 -244 45h-50l-68 -322h43q146 0 197 20h1l-12 -62h-2q-50 24 -188 24h-43l-74 -352h51q149 0 280 49h2l-32 -67h-408zM597 728h484l-2 -71h-2q-97 53 -172 53h-21l-150 -710h-102l150 710h-19q-81 0 -190 -45h-2z" />
    <glyph glyph-name="E_V" horiz-adv-x="1019" 
d="M1050 728h67q-71 -109 -196 -319l-252 -425h-3l-113 685q-41 41 -235 41h-50l-68 -322h43q146 0 197 20h1l-12 -62h-2q-50 24 -188 24h-43l-74 -352h51q149 0 280 49h2l-32 -67h-408l155 728h476l94 -586l162 275q65 108 101 185q33 72 47 126z" />
    <glyph glyph-name="E_V_T" horiz-adv-x="1487" 
d="M1562 728l-2 -71h-2q-97 53 -172 53h-21l-150 -710h-102l150 710h-21q-119 0 -175 -51l-398 -675h-3l-113 685q-41 41 -235 41h-50l-68 -322h43q146 0 197 20h1l-12 -62h-2q-50 24 -188 24h-43l-74 -352h51q149 0 280 49h2l-32 -67h-408l155 728h476l94 -586l162 275
q68 113 102 185q31 63 53 126h505z" />
    <glyph glyph-name="E_W" horiz-adv-x="1319" 
d="M1354 728h59q-62 -107 -177 -319l-228 -425h-3l-62 561l-304 -561h-4l-74 681q-23 25 -80.5 35t-162.5 10h-50l-68 -322h43q146 0 197 20h1l-12 -62h-2q-50 24 -188 24h-43l-74 -352h51q149 0 280 49h2l-32 -67h-408l155 728h486l59 -562l304 562h4l62 -560l132 247
q100 189 137 313z" />
    <glyph glyph-name="E_X" horiz-adv-x="1032" 
d="M865 464l-42 -48l154 -295l-30 -143h-6l-193 367l-298 -345h-435l155 728h348l3 -63h-2q-71 27 -105 35q-36 10 -96 10h-50l-68 -322h43q146 0 197 20h1l-12 -62h-2q-50 24 -188 24h-43l-74 -352h51q81 0 170 15q90 17 149 44l246 286l-192 365h114l153 -294l36 41
q152 176 187 253h76q-104 -98 -247 -264z" />
    <glyph glyph-name="E_X_A" horiz-adv-x="1561" 
d="M1398 0l-38 239h-260l-153 -261h-6l-193 367l-298 -345h-435l155 728h348l3 -63h-2q-71 27 -105 35q-36 10 -96 10h-50l-68 -322h43q146 0 197 20h1l-12 -62h-2q-50 24 -188 24h-43l-74 -352h51q81 0 170 15q90 17 149 44l246 286l-192 365h114l154 -294l35 41
q152 176 187 253h76q-104 -98 -247 -264l-42 -48l168 -319l384 647h3l124 -744h-104zM1111 257h246l-53 330z" />
    <glyph glyph-name="E_X_T" horiz-adv-x="1449" 
d="M1524 728l-2 -71h-2q-96 53 -171 53h-21l-150 -710h-102l150 710h-21q-103 0 -170 -51l-212 -243l154 -295l-30 -143h-6l-193 367l-298 -345h-435l155 728h348l3 -63h-2q-71 27 -105 35q-36 10 -96 10h-50l-68 -322h43q146 0 197 20h1l-12 -62h-2q-50 24 -188 24h-43
l-74 -352h51q81 0 170 15q90 17 149 44l246 286l-192 365h114l153 -294l36 41q83 95 129 153q48 60 72 100h474z" />
    <glyph glyph-name="E_Y" horiz-adv-x="968" 
d="M833 431l-79 -107l-69 -324h-102l69 328l-111 347v2q-26 19 -77 26t-146 7h-50l-68 -322h43q146 0 197 20h1l-12 -62h-2q-50 24 -188 24h-43l-74 -352h51q149 0 280 49h2l-32 -67h-408l155 728h462l117 -380l69 93q125 170 177 287h60q-119 -154 -222 -297z" />
    <glyph glyph-name="F_T" horiz-adv-x="992" 
d="M15 0l155 728h381l-1 -63h-2q-116 45 -245 45h-35l-71 -334h34q147 0 198 20h2l-13 -62h-2q-50 24 -189 24h-34l-76 -358h-102zM583 728h484l-2 -71h-2q-96 53 -171 53h-21l-150 -710h-102l150 710h-20q-81 0 -189 -45h-2z" />
    <glyph glyph-name="F_V" horiz-adv-x="978" 
d="M1010 728h67q-59 -88 -197 -319l-251 -425h-3l-114 686q-41 40 -209 40h-35l-71 -334h34q147 0 198 20h2l-13 -62h-2q-50 24 -189 24h-34l-76 -358h-102l155 728h436l94 -585l162 274q70 119 102 186q33 73 46 125z" />
    <glyph glyph-name="F_W" horiz-adv-x="1273" 
d="M1308 728h59q-62 -107 -177 -319l-228 -425h-4l-62 561l-304 -561h-4l-74 684q-43 42 -211 42h-35l-71 -334h34q147 0 198 20h2l-13 -62h-2q-50 24 -189 24h-34l-76 -358h-102l155 728h439l60 -562l304 562h4l62 -559l132 246q100 189 137 313z" />
    <glyph glyph-name="F_Y" horiz-adv-x="938" 
d="M803 431l-80 -108l-68 -323h-102l69 328l-110 342q-41 40 -209 40h-35l-71 -334h34q147 0 198 20h2l-13 -62h-2q-50 24 -189 24h-34l-76 -358h-102l155 728h432l117 -380l69 93q124 166 177 287h61q-107 -135 -223 -297z" />
    <glyph glyph-name="K_A" horiz-adv-x="1108" 
d="M945 0l-38 239h-260l-153 -261h-6l-261 395l161 136q149 125 221 219h79v-2q-52 -38 -112 -87q-56 -43 -141 -117l-35 -29l-87 -74l220 -330l389 655h3l124 -744h-104zM170 728h102l-155 -728h-102zM658 257h246l-53 329z" />
    <glyph glyph-name="K_AE" horiz-adv-x="1380" 
d="M170 728h102l-155 -728h-102zM1432 728l-1 -63h-2q-115 45 -243 45h-51l-68 -322h42q147 0 198 20h2l-14 -62h-2q-48 24 -187 24h-43l-74 -352h51q148 0 279 49h2l-32 -67h-406l55 262h-234l-210 -284h-6l-261 395l161 136q149 125 221 219h79v-2q-52 -38 -112 -87
q-56 -43 -141 -117l-35 -29l-87 -74l228 -342l485 651h406zM718 280h224l90 424z" />
    <glyph glyph-name="K_S" horiz-adv-x="1075" 
d="M735 584q0 -33 16 -58q15 -24 35.5 -42.5t65.5 -49.5l42 -30q39 -27 74 -56q65 -52 65 -137q0 -96 -71 -159.5t-175 -63.5q-59 0 -118 13q-61 14 -94 31l14 67q29 -43 87 -69q60 -26 118 -26q71 0 117 44.5t46 110.5q0 35 -18 64q-16 28 -38 45q-21 18 -65 50l-41 30
l-48 33q-89 65 -89 158q0 87 65.5 144t164.5 57q57 0 111 -21q55 -21 86 -46l-24 -55q-32 47 -78.5 76.5t-99.5 29.5q-65 0 -106.5 -39.5t-41.5 -100.5zM170 728h102l-155 -728h-102zM400 493l-87 -74l251 -319l-26 -122h-6l-305 395l161 136q149 125 221 219h79v-2
q-52 -38 -112 -87q-56 -43 -141 -117z" />
    <glyph glyph-name="K_T" horiz-adv-x="1025" 
d="M170 728h102l-155 -728h-102zM1100 728l-2 -71h-2q-97 53 -172 53h-21l-150 -710h-102l150 710h-21q-98 0 -189 -56l-278 -235l241 -319l-26 -122h-6l-295 395l161 136q144 120 230 219h482z" />
    <glyph glyph-name="L_A" horiz-adv-x="958" 
d="M795 0l-38 239h-261l-140 -239h-341l155 728h102l-151 -710h18q119 0 239 60l394 666h3l124 -744h-104zM507 257h247l-53 330z" />
    <glyph glyph-name="L_AE" horiz-adv-x="1224" 
d="M1276 728l-2 -63h-2q-112 45 -243 45h-51l-68 -322h43q146 0 197 20h2l-13 -62h-2q-48 24 -187 24h-44l-74 -352h52q148 0 279 49h2l-32 -67h-407l55 262h-233l-194 -262h-339l155 728h102l-151 -710h18q122 0 246 60l484 650h407zM562 280h223l89 422z" />
    <glyph glyph-name="L_L" horiz-adv-x="805" 
d="M364 75h2l-35 -75h-316l155 728h102l-151 -710h3q105 0 240 57zM753 75h2l-35 -75h-333l154 728h102l-151 -710h18q102 0 243 57z" />
    <glyph glyph-name="L_S" horiz-adv-x="876" 
d="M535 584q0 -33 16 -58q14 -24 34 -41t68 -51l42 -30q39 -27 74 -56q65 -52 65 -137q0 -96 -71 -159.5t-175 -63.5q-60 0 -123 22q-66 23 -100 47l-25 -57h-325l155 728h102l-151 -710h20q91 0 231 61h1l17 38q28 -48 87 -81q59 -32 118 -32q71 0 117 44.5t46 110.5
q0 35 -18 64q-16 28 -38 45q-21 18 -65 50l-42 30q-52 39 -71 54q-65 57 -65 137q0 87 65.5 144t163.5 57q56 0 112 -21t85 -46l-23 -55q-32 48 -78.5 77t-100.5 29q-65 0 -106.5 -39.5t-41.5 -100.5z" />
    <glyph glyph-name="M_C_period" horiz-adv-x="1154" 
d="M403 202l307 526h91l-89 -728h-102l82 659l-358 -613h-4l-123 592l-96 -319q-57 -181 -72 -319h-60q44 100 112 320l108 358l-10 47v3h106zM1112 253l10 -8q-63 -79 -152 -79q-66 0 -104 41.5t-38 111.5q0 90 56.5 153.5t141.5 63.5q84 0 131 -65l-37 -27q-25 79 -91 79
q-57 0 -97 -64t-40 -139q0 -59 26.5 -92.5t75.5 -33.5q69 0 118 59zM869 51l76 60l57 -72l-77 -60z" />
    <glyph glyph-name="N_period" horiz-adv-x="321" 
d="M253 705q0 39 -43 64l51 45q50 -23 50 -70q0 -37 -32.5 -71t-84.5 -55l-4 5q63 32 63 82zM303 531h38q-22 -50 -40 -144l-40 -190h-7l-141 277l-27 -128q-19 -95 -19 -144h-38q25 58 41 144l32 150l-16 32v3h61l118 -238l20 94q19 91 18 144zM154 1q0 -37 -32.5 -71
t-84.5 -55l-4 5q64 33 64 82q0 37 -44 63l52 46q49 -24 49 -70z" />
    <glyph glyph-name="O_C" horiz-adv-x="1070" 
d="M852 724q-94 0 -170 -76q78 -88 78 -219q0 -95 -35.5 -181.5t-98.5 -149.5q67 -67 170 -67q137 0 232 118l12 -8q-118 -153 -285 -153q-112 0 -186 62q-95 -62 -203 -62q-137 0 -223.5 86t-86.5 227q-2 117 51 219t146.5 162t203.5 58q112 0 192 -62q92 62 199 62
q83 0 150 -37t107 -102l-56 -41q-28 76 -79 120t-118 44zM373 4q97 0 171 70q-78 81 -78 223q0 107 40 200.5t112 156.5q-61 70 -160 70q-89 0 -156 -67q-67 -66 -103 -172q-36 -105 -36 -215q0 -123 56 -194.5t154 -71.5zM686 448q0 95 -37 162q-46 -61 -71.5 -140.5
t-25.5 -160.5q0 -103 45 -174q89 133 89 313z" />
    <glyph glyph-name="O_F" horiz-adv-x="631" 
d="M57 337q0 82 55 141t135 59q66 0 107.5 -40.5t41.5 -104.5q0 -82 -54 -139.5t-134 -57.5q-68 0 -109.5 39.5t-41.5 102.5zM469 531h183v-36h-2q-62 22 -113 22h-14l-31 -145h7q77 0 98 10h2l-7 -35h-2q-25 11 -94 11h-7l-33 -157h-57zM117 324q0 -53 24.5 -85t66.5 -32
q56 0 92 62t36 137q0 54 -23.5 86t-65.5 32q-56 0 -93 -63t-37 -137zM41 120l3 14h500l-3 -14h-500z" />
    <glyph glyph-name="O_G" horiz-adv-x="1127" 
d="M865 312l-10 18h247l-57 -270q-116 -72 -247 -72q-137 0 -224 66q-93 -66 -208 -66q-137 0 -223.5 86t-86.5 227q-2 117 51 219t146.5 162t203.5 58q116 0 196 -65q95 65 214 65q175 0 263 -139l-55 -42q-28 76 -84 120.5t-129 44.5q-100 0 -178 -78q76 -85 76 -217
q0 -100 -39 -190.5t-109 -154.5q66 -79 186 -79q81 0 149 43l56 264h-138zM548 77q-82 80 -82 217q0 107 41 200.5t114 156.5q-62 73 -163 73q-89 0 -156 -67q-67 -66 -103 -172q-36 -105 -36 -215q0 -123 56 -194.5t154 -71.5t175 73zM651 607q-47 -63 -73 -150.5
t-26 -180.5q0 -90 35 -155q48 63 73.5 149t25.5 178q0 91 -35 159z" />
    <glyph glyph-name="O_O" horiz-adv-x="1183" 
d="M1170 427q2 -115 -50.5 -217t-146.5 -163t-205 -59q-116 0 -196 65q-95 -65 -206 -65q-137 0 -223.5 86t-86.5 227q-2 117 51 219t146.5 162t203.5 58q116 0 196 -64q94 64 206 64q136 0 223.5 -85.5t87.5 -227.5zM373 4q97 0 174 72q-81 87 -81 224q0 105 41 197.5
t114 153.5q-62 73 -163 73q-89 0 -156 -67q-67 -66 -103 -172q-36 -105 -36 -215q0 -123 56 -194.5t154 -71.5zM1062 458q0 123 -56 194.5t-154 71.5t-174 -72q82 -85 82 -223q0 -103 -41.5 -196.5t-114.5 -155.5q62 -73 163 -73q87 0 155 66q69 69 104 172q36 106 36 216z
M579 112q51 63 79 151.5t28 184.5q0 100 -40 168q-51 -63 -79 -151.5t-28 -184.5q0 -100 40 -168z" />
    <glyph glyph-name="O_O_C" horiz-adv-x="1493" 
d="M1104 647q79 -85 79 -219q0 -96 -35 -182t-99 -148q67 -67 171 -67q134 0 232 118l11 -8q-118 -153 -284 -153q-111 0 -188 63q-95 -63 -211 -63q-124 0 -205 66q-98 -66 -209 -66q-137 0 -223.5 86t-86.5 227q-2 117 51 219t146.5 162t203.5 58q114 0 197 -65
q98 65 215 65q119 0 202 -63q90 63 201 63q83 0 150 -37t107 -102l-56 -41q-28 76 -79 120t-118 44q-95 0 -172 -77zM373 4q99 0 176 74q-83 86 -83 223q0 104 41.5 196.5t114.5 152.5q-62 74 -164 74q-89 0 -156 -67q-67 -66 -103 -172q-36 -105 -36 -215q0 -123 56 -194.5
t154 -71.5zM786 4q102 0 181 70q-78 84 -78 223q0 106 39.5 199.5t110.5 155.5q-66 72 -175 72q-105 0 -185 -73q81 -87 81 -222q0 -103 -40.5 -195t-112.5 -154q64 -76 179 -76zM582 115q50 62 77 150.5t27 182.5q0 99 -40 167q-51 -62 -78.5 -148.5t-27.5 -180.5
q0 -100 42 -171zM1071 608q-45 -60 -70.5 -139.5t-25.5 -159.5q0 -103 45 -174q90 128 90 307q0 96 -39 166z" />
    <glyph glyph-name="O_O_G" horiz-adv-x="1550" 
d="M1288 312l-9 18h246l-57 -270q-114 -72 -246 -72q-139 0 -225 67q-98 -67 -217 -67q-124 0 -205 66q-98 -66 -209 -66q-137 0 -223.5 86t-86.5 227q-2 117 51 219t146.5 162t203.5 58q114 0 197 -65q98 65 215 65q122 0 206 -67q97 67 216 67q175 0 263 -139l-56 -42
q-28 75 -84 120t-128 45q-104 0 -180 -79q77 -86 77 -217q0 -101 -39.5 -191.5t-108.5 -151.5q63 -80 186 -80q82 0 150 43l55 264h-138zM373 4q99 0 176 74q-83 86 -83 223q0 104 41.5 196.5t114.5 152.5q-62 74 -164 74q-89 0 -156 -67q-67 -66 -103 -172
q-36 -105 -36 -215q0 -123 56 -194.5t154 -71.5zM970 78q-81 81 -81 216q0 106 40.5 199.5t113.5 155.5q-67 75 -179 75q-105 0 -185 -73q81 -87 81 -222q0 -103 -40.5 -195t-112.5 -154q64 -76 179 -76q104 0 184 74zM582 115q50 62 77 150.5t27 182.5q0 99 -40 167
q-51 -62 -78.5 -148.5t-27.5 -180.5q0 -100 42 -171zM1073 605q-98 -132 -98 -329q0 -90 35 -155q100 130 100 321q0 96 -37 163z" />
    <glyph glyph-name="R_A" horiz-adv-x="1082" 
d="M919 0l-38 239h-260l-153 -261h-5l-170 330q-6 13 -15 17t-29 4h-61l-71 -329h-102l155 728h161q124 0 189.5 -43t65.5 -119q0 -84 -57.5 -138.5t-157.5 -78.5l135 -261l389 656h4l123 -744h-103zM485 569q0 143 -166 143h-50l-77 -361q29 -6 77 -6q87 0 151.5 64
t64.5 160zM632 257h246l-53 330z" />
    <glyph glyph-name="R_S" horiz-adv-x="1065" 
d="M724 584q0 -33 16 -58q10 -17 25.5 -32t27.5 -24.5t48 -35.5l42 -30q46 -32 75 -56q65 -55 65 -137q0 -96 -71 -159.5t-175 -63.5q-59 0 -118 13q-63 14 -95 31l15 67q29 -44 86 -69q60 -26 119 -26q70 0 116.5 44.5t46.5 110.5q0 35 -18 64q-17 29 -36 44l-67 51l-42 30
l-48 33q-89 65 -89 158q0 87 65.5 144t164.5 57q57 0 111 -21q55 -21 86 -46l-24 -55q-71 106 -178 106q-65 0 -106.5 -39.5t-41.5 -100.5zM374 349l158 -251l-25 -120h-6l-208 330q-14 21 -44 21h-61l-71 -329h-102l155 728h161q124 0 189.5 -43t65.5 -119
q0 -84 -57 -138.5t-155 -78.5zM485 569q0 143 -166 143h-50l-77 -361q29 -6 77 -6q87 0 151.5 64t64.5 160z" />
    <glyph glyph-name="S_S" horiz-adv-x="934" 
d="M2 57l28 61q27 -49 85 -82q59 -32 118 -32q70 0 116.5 44.5t46.5 110.5q0 35 -18 64q-17 29 -36 44l-67 51l-42 30l-48 33q-89 65 -89 158q0 87 65.5 144t164.5 57q94 0 174 -51l-21 -45q-70 80 -158 80q-65 0 -106.5 -39.5t-41.5 -100.5q0 -33 16 -58q10 -17 25.5 -32
t27.5 -24.5t48 -35.5l42 -30q46 -32 75 -56q65 -55 65 -137q0 -96 -71 -159.5t-175 -63.5q-60 0 -123 22q-68 24 -101 47zM455 39l22 43q33 -35 81 -56.5t95 -21.5q71 0 117 44.5t46 110.5q0 35 -18 64q-16 28 -38 45q-21 18 -65 50l-41 30l-48 33q-89 65 -89 158
q0 87 65.5 144t164.5 57q57 0 111 -21q55 -21 86 -46l-24 -55q-32 47 -78.5 76.5t-99.5 29.5q-65 0 -106.5 -39.5t-41.5 -100.5q0 -33 16 -58q15 -24 35.5 -42.5t65.5 -49.5l42 -30q39 -27 74 -56q65 -52 65 -137q0 -96 -71 -159.5t-175 -63.5q-93 0 -191 51z" />
    <glyph glyph-name="S_T_period" horiz-adv-x="788" 
d="M173 584q0 -33 16 -58q10 -17 25.5 -32t27.5 -24.5t48 -35.5l42 -30q46 -32 75 -56q65 -55 65 -137q0 -96 -71 -159.5t-175 -63.5q-60 0 -123 22q-68 24 -101 47l28 61q27 -49 85 -82q59 -32 118 -32q70 0 116.5 44.5t46.5 110.5q0 35 -18 64q-17 29 -36 44l-67 51
l-42 30l-48 33q-89 65 -89 158q0 87 65.5 144t164.5 57q57 0 111 -21q55 -21 86 -46l-24 -55q-71 106 -178 106q-65 0 -106.5 -39.5t-41.5 -100.5zM813 531l1 -42h-2q-31 16 -49.5 21.5t-48.5 5.5h-8l-73 -345h-65l73 345h-7q-32 0 -53 -6q-21 -4 -57 -21h-2l19 42h272z
M508 51l77 60l56 -72l-76 -60z" />
    <glyph glyph-name="T_H_E" horiz-adv-x="823" 
d="M72 493h-2l14 38h233l-1 -38h-2q-39 24 -80 24h-8l-68 -316h-56l68 316h-9q-41 0 -89 -24zM334 201h-57l70 330h57l-32 -152h137l33 152h56l-70 -330h-57l36 165h-138zM641 531h188l-1 -36h-2q-59 22 -120 22h-11l-30 -138h10q70 0 99 10h2l-7 -35h-2q-20 11 -94 11h-11
l-33 -150h14q73 0 136 22h2l-17 -36h-194zM37 120l3 14h706l-3 -14h-706z" />
    <glyph glyph-name="T_T" horiz-adv-x="893" 
d="M968 728l-2 -71h-2q-96 53 -171 53h-21l-150 -710h-102l150 710h-261l-150 -710h-102l150 710h-20q-74 0 -194 -53h-2l28 71h849z" />
    <glyph glyph-name="T_V" horiz-adv-x="1055" 
d="M1086 728h67q-71 -109 -196 -319l-252 -425h-3l-110 673q-38 53 -161 53h-22l-150 -710h-102l150 710h-20q-74 0 -194 -53h-2l28 71h563l94 -586l162 275q65 108 101 185q33 72 47 126z" />
    <glyph glyph-name="T_W" horiz-adv-x="1355" 
d="M1390 728h59q-62 -107 -177 -319l-228 -425h-4l-62 561l-304 -561h-4l-73 673q-34 53 -166 53h-22l-150 -710h-102l150 710h-20q-74 0 -194 -53h-2l28 71h572l60 -562l304 562h4l62 -559l132 246q100 189 137 313z" />
    <glyph glyph-name="T_Y" horiz-adv-x="1013" 
d="M878 431l-79 -107l-69 -324h-102l69 328l-105 329q-38 53 -161 53h-22l-150 -710h-102l150 710h-20q-74 0 -194 -53h-2l28 71h558l117 -380l69 93q125 170 177 287h60q-118 -154 -222 -297z" />
    <glyph glyph-name="T_Y_T" horiz-adv-x="1467" 
d="M1542 728l-2 -71h-2q-97 53 -172 53h-21l-150 -710h-102l150 710h-21q-120 0 -175 -51l-248 -335l-69 -324h-102l69 328l-105 329q-38 53 -161 53h-22l-150 -710h-102l150 710h-20q-74 0 -194 -53h-2l28 71h558l117 -380l69 93q124 168 184 287h495z" />
    <glyph glyph-name="U_T" horiz-adv-x="1070" 
d="M1145 728l-2 -71h-2q-96 53 -171 53h-21l-150 -710h-102l150 710h-21q-130 0 -188 -53l-86 -405q-28 -133 -95.5 -198.5t-181.5 -65.5q-105 0 -162 52t-57 147q0 37 9 79l98 462h102l-99 -464q-9 -45 -9 -82q0 -79 39.5 -121.5t114.5 -42.5q171 0 220 229l102 481h512z
" />
    <glyph glyph-name="V_S" horiz-adv-x="547" 
d="M385 464q0 -19 11 -31.5t41 -33.5l18 -13q36 -23 50.5 -41t14.5 -47q0 -44 -32.5 -73.5t-80.5 -29.5q-59 0 -106 33l17 35q10 -24 36.5 -40t54.5 -16q30 0 50 19.5t20 47.5q0 22 -12 36t-41 34l-18 12q-34 23 -48.5 41t-14.5 46q0 40 30.5 67t74.5 27q53 0 93 -33
l-14 -31q-28 51 -81 51q-27 0 -45 -17t-18 -43zM145 193h-6l-62 338h57l45 -253l67 111q54 89 66 142h41q-21 -31 -73 -117l-18 -29zM32 120l3 14h424l-3 -14h-424z" />
    <glyph glyph-name="V_T" horiz-adv-x="1045" 
d="M1121 728l-2 -71h-2q-97 53 -172 53h-21l-150 -710h-102l150 710h-21q-119 0 -175 -51l-398 -675h-3l-124 744h104l94 -585l162 274q68 114 103 186q34 68 51 125h506z" />
    <glyph glyph-name="W_T" horiz-adv-x="1339" 
d="M1415 728l-2 -71h-2q-97 53 -172 53h-21l-150 -710h-102l150 710h-21q-119 0 -175 -51l-360 -675h-4l-62 561l-304 -561h-4l-82 744h103l59 -562l305 562h4l62 -559l131 246q98 182 140 313h507z" />
    <glyph glyph-name="X_A" horiz-adv-x="1106" 
d="M943 0l-38 239h-260l-153 -261h-6l-193 367l-80 -91q-123 -144 -167 -254h-100q114 106 253 265l84 98l-192 365h114l154 -294l35 41q152 176 187 253h76q-104 -98 -247 -264l-42 -48l168 -319l384 647h3l124 -744h-104zM656 257h246l-53 330z" />
    <glyph glyph-name="X_T" horiz-adv-x="994" 
d="M1069 728l-2 -71h-2q-96 53 -171 53h-21l-150 -710h-102l150 710h-21q-102 0 -170 -51l-212 -243l154 -295l-30 -143h-6l-193 367l-80 -91q-123 -144 -167 -254h-100q114 106 253 265l84 98l-192 365h114l153 -294l36 41q82 95 129 153q48 60 72 100h474z" />
    <glyph glyph-name="Y_T" horiz-adv-x="1008" 
d="M1083 728l-2 -71h-2q-97 53 -172 53h-21l-150 -710h-102l150 710h-21q-119 0 -175 -51l-248 -335l-69 -324h-102l69 328l-127 400h107l117 -380l69 93q124 168 184 287h495z" />
    <glyph glyph-name="Z_A" horiz-adv-x="1036" 
d="M875 0l-38 239h-260l-141 -239h-484l1 4l509 706h-47q-187 0 -303 -45h-2l26 63h458l-1 -4l-509 -706h68q182 0 307 60l393 666h3l124 -744h-104zM587 257h247l-53 329z" />
    <glyph glyph-name="Z_Z" horiz-adv-x="987" 
d="M408 67h1l-32 -67h-425l1 4l510 706h-47q-187 0 -303 -45h-2l25 63h459l-1 -4l-509 -706h61q91 0 138 10q52 11 124 39zM1070 728l-1 -4l-510 -706h62q97 0 171 11q69 10 140 38h1l-32 -67h-474l1 4l509 706h-47q-91 0 -142 -10q-59 -12 -116 -35h-2l25 63h415z" />
    <glyph glyph-name="f_b" horiz-adv-x="905" 
d="M889 380q0 -90 -42 -182q-41 -90 -116 -151q-74 -59 -164 -59q-95 0 -146 70l-69 -62h-4l162 763q-47 21 -98 21q-118 0 -150 -150l-21 -99h142l-17 -22h-130l-110 -519q-20 -92 -90.5 -148.5t-172.5 -69.5l-1 12q61 13 105.5 65.5t62.5 133.5l112 526h-70l5 22h70l20 94
q19 92 73 140.5t135 48.5q77 0 143 -41l93 37h4l-105 -494h9q94 227 239 227q65 0 98 -43t33 -120zM790 372q0 56 -19.5 90.5t-55.5 34.5q-66 0 -137.5 -108.5t-113.5 -289.5q13 -45 40.5 -70t66.5 -25q61 0 111 60q51 64 79 148q29 90 29 160z" />
    <glyph glyph-name="f_h" horiz-adv-x="896" 
d="M868 419q0 -33 -9 -72l-74 -347h-95l76 355q7 29 7 62q0 80 -59 80q-73 0 -144.5 -122t-126.5 -375h-95l162 759q-47 21 -98 21q-118 0 -150 -150l-21 -99h142l-17 -22h-130l-110 -519q-20 -92 -90.5 -148.5t-172.5 -69.5l-1 12q61 13 105.5 65.5t62.5 133.5l112 526h-70
l5 22h70l20 94q19 92 73 140.5t135 48.5q77 0 143 -41l93 37h4l-109 -512h9q94 245 241 245q112 0 112 -124z" />
    <glyph glyph-name="f_j" horiz-adv-x="561" 
d="M515 531l40 11h4l-117 -552q-20 -92 -90.5 -148.5t-172.5 -69.5l-1 12q61 13 106 66t62 133l111 526h-221l-110 -519q-20 -92 -90.5 -148.5t-172.5 -69.5l-1 12q61 13 105.5 65.5t62.5 133.5l112 526h-70l5 22h70l20 94q19 92 71.5 140.5t130.5 48.5q67 0 131 -39l-8 -13
q-39 18 -86 18q-112 0 -144 -150l-21 -99h274zM533 626l-57 75l78 61l58 -75z" />
    <glyph glyph-name="f_k" horiz-adv-x="837" 
d="M611 810h4l-172 -810h-95l162 759q-47 21 -98 21q-118 0 -150 -150l-21 -99h142l-17 -22h-130l-110 -519q-20 -92 -90.5 -148.5t-172.5 -69.5l-1 12q61 13 105.5 65.5t62.5 133.5l112 526h-70l5 22h70l20 94q19 92 73 140.5t135 48.5q77 0 143 -41zM639 360l-26 -21
l173 -241l-25 -120h-4l-225 322l97 76q55 43 109 89q34 28 74 66h66v-2q-65 -41 -114 -76q-58 -40 -125 -93z" />
    <glyph glyph-name="f_t" horiz-adv-x="637" 
d="M524 509l-81 -382q-6 -26 -6 -50q0 -47 37 -47q43 0 124 81l11 -10q-97 -113 -181 -113q-86 0 -86 86q0 26 6 51l81 384h-193l-110 -519q-20 -92 -90.5 -148.5t-172.5 -69.5l-1 12q61 13 105.5 65.5t62.5 133.5l112 526h-70l5 22h70l20 94q19 92 71.5 140.5t130.5 48.5
q83 0 144 -46l-9 -12q-46 24 -98 24q-112 0 -144 -150l-21 -99h189l131 170h4l-36 -170h157l-17 -22h-145z" />
    <glyph glyph-name="k_s" horiz-adv-x="877" 
d="M263 810h4l-172 -810h-94l165 780zM601 434q0 -34 19.5 -56t68.5 -53l34 -22q55 -35 79 -65.5t27 -86.5q0 -72 -52.5 -117.5t-132.5 -45.5q-93 0 -177 38l12 56q29 -36 72.5 -58t91.5 -22q54 0 87.5 30t33.5 76q0 36 -19.5 59.5t-68.5 53.5l-34 22q-55 34 -81 66.5
t-26 81.5q0 68 48 110q50 42 125 42q46 0 91.5 -15.5t73.5 -37.5l-20 -46q-63 85 -148 85q-45 0 -74.5 -27.5t-29.5 -67.5zM292 360l-26 -20l173 -242l-25 -120h-5l-225 322l97 76q70 56 112 91q36 29 71 64h66v-2q-61 -37 -112 -74q-44 -32 -126 -95z" />
    <glyph glyph-name="l_l" horiz-adv-x="426" 
d="M214 0l166 780l97 30h4l-172 -810h-95zM3 0l155 730l97 30h4l-161 -760h-95z" />
    <glyph glyph-name="r_v" horiz-adv-x="751" 
d="M748 531h59q-54 -81 -190 -300l-150 -246h-6l-89 478q-12 9 -44 9q-56 0 -119 -117t-114 -355h-95l110 515l97 27h4l-52 -244h6q89 243 213 243q35 0 77 -10l75 -408l71 116q119 197 147 292z" />
    <glyph glyph-name="r_w" horiz-adv-x="999" 
d="M995 531h58q-55 -86 -181 -305l-138 -241h-6l-53 391l-222 -391h-7l-75 479q-14 8 -43 8q-56 0 -119 -117t-114 -355h-95l110 515l97 27h4l-52 -244h6q89 243 213 243q35 0 77 -10l61 -398l225 398h6l53 -394l55 97q110 192 140 297z" />
    <glyph glyph-name="r_y" horiz-adv-x="751" 
d="M745 531h58q-45 -68 -91 -145l-66 -110q-20 -34 -25 -42l-189 -318q-51 -88 -104 -119t-127 -31l18 57q17 -7 43 -7q41 0 81 26t70 76l48 81l-88 464q-15 9 -45 9q-56 0 -119 -117t-114 -355h-95l110 515l97 27h4l-52 -244h6q89 243 213 243q35 0 77 -10l78 -411l72 121
q110 184 140 290z" />
    <glyph glyph-name="t_t" horiz-adv-x="634" 
d="M521 509l-81 -382q-6 -26 -6 -50q0 -47 37 -47q43 0 124 81l11 -10q-97 -113 -181 -113q-86 0 -86 86q0 26 6 51l81 384h-195l-80 -382q-6 -26 -6 -50q0 -47 37 -47q41 0 117 74l11 -10q-95 -106 -175 -106q-86 0 -86 87q0 25 6 50l82 384h-70l3 17l68 5l131 170h4
l-37 -170h191l131 170h4l-36 -170h157l-17 -22h-145z" />
    <glyph glyph-name="zero.osf" horiz-adv-x="616" 
d="M44 238q-2 100 36.5 189.5t111 145.5t160.5 54q106 0 171.5 -67t65.5 -184q2 -99 -37 -189t-111.5 -145.5t-160.5 -53.5q-105 0 -170.5 67t-65.5 183zM488 423q0 90 -33.5 139.5t-97.5 49.5q-63 0 -113 -66q-48 -65 -74 -163q-25 -96 -25 -190q0 -90 34 -140.5t97 -50.5
q65 0 113 66q47 66 73 165t26 190z" />
    <glyph glyph-name="one.osf" horiz-adv-x="279" 
d="M283 624h4l-132 -624h-93l105 499q-53 -29 -119 -45l2 12q61 18 125 61q65 44 108 97z" />
    <glyph glyph-name="two.osf" horiz-adv-x="485" 
d="M76 69h47q157 0 294 20l-42 -89h-408l1 4l69 54l63 48q99 77 146 118q129 113 129 229q0 58 -32.5 92t-87.5 34q-94 0 -172 -109l-12 6q90 150 225 150q78 0 130 -46.5t52 -121.5q0 -69 -41 -127q-42 -58 -102 -100q-62 -44 -167 -106q-2 -1 -14.5 -8.5t-33.5 -20
t-44 -27.5z" />
    <glyph glyph-name="three.osf" horiz-adv-x="482" 
d="M-43 -66l24 58q62 -101 158 -101q78 0 130 55t52 135q0 73 -47 121t-123 60l-2 12l33 8q74 20 124 74q51 54 51 121q0 49 -29.5 76t-80.5 27q-48 0 -91.5 -23t-72.5 -56l-12 7q92 119 216 119q73 0 120 -37q49 -37 49 -99q0 -65 -55.5 -119.5t-126.5 -73.5l-1 -2
q60 -20 98.5 -70t38.5 -117q2 -95 -78 -165t-190 -69q-96 0 -185 59z" />
    <glyph glyph-name="four.osf" horiz-adv-x="505" 
d="M468 147l-30 -62h-84l-42 -198h-93l42 198h-288l-5 30l479 505h20l-100 -473h101zM24 147h250l73 342z" />
    <glyph glyph-name="five.osf" horiz-adv-x="464" 
d="M443 543h-292l-49 -179q141 -10 219 -73t78 -166q0 -111 -76.5 -181t-190.5 -70q-95 0 -179 57l22 48q58 -88 156 -88q81 0 132 55.5t51 141.5q0 85 -68 136t-187 57l92 334h328z" />
    <glyph glyph-name="six.osf" horiz-adv-x="535" 
d="M37 220q-2 116 57.5 228.5t161.5 191.5t218 100l3 -15q-100 -25 -180 -112t-121.5 -203t-39.5 -235q0 -83 30 -128t84 -45q46 -2 84 39.5t56.5 102t17.5 121.5q0 67 -29 104.5t-82 37.5q-45 0 -89 -32l-9 13q61 52 136 52q76 0 125.5 -52t49.5 -133q2 -109 -76 -189
t-184 -78q-99 0 -156 62t-57 170z" />
    <glyph glyph-name="seven.osf" horiz-adv-x="461" 
d="M98 615h425v-4l-401 -724h-94l436 656h-109q-190 0 -295 -24z" />
    <glyph glyph-name="eight.osf" horiz-adv-x="525" 
d="M474 203q2 -90 -73 -153.5t-175 -61.5q-87 0 -148 45t-61 122q0 76 55 132q56 57 142 80q-98 69 -98 167q0 87 64 146.5t155 59.5q77 0 129 -43.5t52 -109.5q0 -65 -50 -118q-50 -51 -125 -74q65 -41 99 -85t34 -107zM192 570q0 -49 26.5 -83.5t77.5 -64.5l29 -18
q56 33 88.5 86t32.5 112q0 57 -30 90.5t-82 33.5q-62 0 -102 -46.5t-40 -109.5zM397 166q0 41 -19 70q-17 27 -36 43.5t-57 41.5l-41 26l-18 11q-64 -32 -101 -89.5t-37 -123.5t38.5 -104.5t101.5 -38.5q70 0 119.5 48.5t49.5 115.5z" />
    <glyph glyph-name="nine.osf" horiz-adv-x="536" 
d="M78 -125l-2 15q100 25 180 112t121.5 203t39.5 234q0 83 -30.5 128.5t-84.5 45.5q-46 2 -84 -40t-56.5 -102.5t-17.5 -120.5q0 -68 29.5 -105t82.5 -37q46 0 89 32l9 -13q-62 -53 -137 -53q-76 0 -125 52t-49 134q-2 109 76 189t184 78q98 0 155.5 -62.5t57.5 -169.5
q2 -116 -58 -228.5t-162 -191.5t-218 -100z" />
    <glyph glyph-name="zero.zero" horiz-adv-x="639" 
d="M622 458q2 -116 -38.5 -224.5t-118.5 -178.5t-174 -67q-106 0 -169.5 75t-63.5 206q-2 116 39 224.5t119 179t173 67.5q107 0 170 -75t63 -207zM157 218v-17l365 351q-6 83 -39 128.5t-90 45.5q-71 0 -125 -82q-54 -85 -82 -202q-29 -121 -29 -224zM524 510v17l-366 -350
q6 -84 39.5 -129.5t90.5 -45.5q72 0 124 82q55 84 83 201q29 122 29 225z" />
    <glyph glyph-name="space.alt" horiz-adv-x="237" 
d="M114 229l-56 73l76 60l57 -73z" />
    <glyph glyph-name="percent.alt" horiz-adv-x="671" 
d="M644 728h19l-583 -728h-34l551 670q-80 -55 -163 -55q-30 0 -61 11v-8q2 -87 -54 -167.5t-127 -77.5q-53 0 -82.5 32t-29.5 89q-2 86 56 164.5t133 75.5q65 0 91 -53q23 -44 83 -44q59 0 114 24t87 67zM354 634q-48 25 -68 76q-16 2 -20 2q-34 2 -66.5 -35.5t-51 -90.5
t-17.5 -99q0 -44 19.5 -68.5t55.5 -24.5q37 -2 72.5 35.5t56.5 91t20 98.5q0 12 -1 15zM632 239q1 -55 -23.5 -112.5t-68 -96t-89.5 -36.5q-53 0 -82.5 32.5t-29.5 87.5q-2 86 56 165t132 76q49 0 77 -31.5t28 -84.5zM614 239q0 44 -20.5 69t-56.5 25q-59 3 -103.5 -72.5
t-43.5 -152.5q0 -45 19.5 -69t55.5 -24q37 -2 72.5 35t56.5 90.5t20 98.5z" />
    </font>
</defs>
</svg>
