<?xml version="1.0" standalone="no"?>
<!DOCTYPE svg PUBLIC "-//W3C//DTD SVG 1.1//EN" "http://www.w3.org/Graphics/SVG/1.1/DTD/svg11.dtd" >
<svg xmlns="http://www.w3.org/2000/svg" xmlns:xlink="http://www.w3.org/1999/xlink" version="1.1">
<metadata>
Created by FontForge 20170812 at Sat May 25 04:15:15 2019
 By www-data
Copyright (c) 2018 by Ivy Foundry. All rights reserved. |DCNT
</metadata>
<defs>
<font id="IvyMode-LightItalic" horiz-adv-x="0" >
  <font-face 
    font-family="Ivy Mode Light"
    font-weight="300"
    font-style="italic"
    font-stretch="normal"
    units-per-em="1000"
    panose-1="2 11 4 4 2 1 1 1 1 2"
    ascent="810"
    descent="-190"
    x-height="526"
    cap-height="728"
    bbox="-401 -276 1568 1040"
    underline-thickness="50"
    underline-position="-200"
    slope="-12"
    unicode-range="U+000D-FEFF"
  />
<missing-glyph horiz-adv-x="832" 
d="M118 728h632v-760h-632v760zM728 708h-588v-720h588v720z" />
    <glyph glyph-name="f_f" unicode="ff" horiz-adv-x="615" 
d="M788 775l-8 -12q-49 24 -101 24q-115 0 -150 -164l-21 -97h164l-17 -22h-151l-114 -531q-18 -84 -78 -136.5t-150 -64.5l-1 12q62 11 105.5 60.5t59.5 126.5l114 533h-230l-113 -531q-18 -84 -78 -136.5t-151 -64.5l-1 12q61 11 105 60.5t61 126.5l114 533h-76l5 22h76
l21 100q20 92 70 139.5t123 47.5q67 0 125 -37l-8 -12q-43 22 -97 22q-117 0 -151 -163l-21 -97h230l22 101q20 92 70 139.5t123 47.5q71 0 129 -39z" />
    <glyph glyph-name="f_f_i" unicode="ffi" horiz-adv-x="817" 
d="M781 526l27 9h4l-115 -535h-63l107 504h-237l-114 -531q-18 -84 -78 -136.5t-150 -64.5l-1 12q62 11 105.5 60.5t59.5 126.5l114 533h-230l-113 -531q-18 -84 -78 -136.5t-151 -64.5l-1 12q61 11 105 60.5t61 126.5l114 533h-76l5 22h76l21 100q20 92 70 139.5t123 47.5
q67 0 125 -37l-8 -12q-43 22 -97 22q-117 0 -151 -163l-21 -97h230l22 101q20 92 70 139.5t123 47.5q67 0 125 -36l-8 -13q-43 22 -97 22q-115 0 -150 -164l-21 -97h273zM804 633l-46 59l61 47l46 -59z" />
    <glyph glyph-name="f_i" unicode="fi" horiz-adv-x="524" 
d="M488 526l26 9h4l-114 -535h-64l108 504h-238l-113 -531q-18 -84 -78 -136.5t-151 -64.5l-1 12q61 11 105 60.5t61 126.5l114 533h-76l5 22h75l22 101q20 92 70 139.5t123 47.5q66 0 124 -36l-8 -13q-47 22 -96 22q-116 0 -151 -164l-21 -97h274zM510 633l-45 59l60 47
l46 -59z" />
    <glyph glyph-name="f_l" unicode="fl" horiz-adv-x="517" 
d="M566 810h4l-172 -810h-63l162 765q-53 22 -102 22q-125 0 -160 -164l-21 -97h154l-17 -22h-141l-113 -531q-18 -84 -78 -136.5t-151 -64.5l-1 12q61 11 105 60.5t61 126.5l114 533h-76l5 22h75l22 101q20 92 71.5 139.5t129.5 47.5q65 0 130 -35z" />
    <glyph glyph-name=".notdef" horiz-adv-x="832" 
d="M118 728h632v-760h-632v760zM728 708h-588v-720h588v720z" />
    <glyph glyph-name=".null" 
 />
    <glyph glyph-name="uni000D" unicode="&#xd;" horiz-adv-x="210" 
 />
    <glyph glyph-name="space" unicode=" " horiz-adv-x="210" 
 />
    <glyph glyph-name="exclam" unicode="!" horiz-adv-x="194" 
d="M75 198l82 530h74l-142 -530h-14zM41 -20l-49 63l65 50l49 -63z" />
    <glyph glyph-name="quotedbl" unicode="&#x22;" horiz-adv-x="275" 
d="M104 452l35 288h64l-89 -288h-10zM237 452l35 288h64l-89 -288h-10z" />
    <glyph glyph-name="numbersign" unicode="#" horiz-adv-x="536" 
d="M555 481h-107l-82 -234h100l-4 -18h-102l-80 -229h-21l80 229h-193l-80 -229h-21l80 229h-105l4 18h107l82 234h-100l4 18h102l80 229h21l-80 -229h193l80 229h21l-80 -229h105zM345 247l82 234h-193l-82 -234h193z" />
    <glyph glyph-name="dollar" unicode="$" horiz-adv-x="494" 
d="M505 671l-19 -43q-40 57 -103 81l-92 -301l21 -13q40 -25 73 -52q64 -50 64 -134q0 -93 -69 -157t-168 -64q-29 0 -48 4l-28 -93h-20l29 97q-81 16 -147 62l22 48q43 -65 131 -91l102 333l-20 13q-38 25 -71 51q-66 57 -66 134q0 82 63 138t155 56q29 0 56 -6l29 95h20
l-30 -99q71 -20 116 -59zM274 419l91 297q-30 8 -56 8q-67 0 -111.5 -43.5t-44.5 -105.5q0 -45 28 -79t89 -74zM275 334l-6 4l-100 -328q25 -6 50 -6q74 0 124 49t50 119q0 51 -28.5 86.5t-89.5 75.5z" />
    <glyph glyph-name="percent" unicode="%" horiz-adv-x="715" 
d="M86 523q-1 83 50.5 148t125.5 63q60 0 97 -39.5t37 -104.5q0 -84 -49.5 -147t-124.5 -63q-60 0 -98 39t-38 104zM85 0l562 728h25l-562 -728h-25zM353 603q0 56 -24.5 87.5t-67.5 31.5q-58 0 -94.5 -64.5t-36.5 -146.5q0 -56 24 -87.5t67 -31.5q59 0 95.5 64t36.5 147z
M360 138q0 84 50.5 147t124.5 63q60 0 97.5 -39t37.5 -104q2 -83 -49.5 -148t-125.5 -63q-60 0 -97.5 39.5t-37.5 104.5zM627 217q0 56 -24 87.5t-67 31.5q-59 0 -95.5 -64t-36.5 -147q0 -56 24 -87.5t67 -31.5q59 0 95.5 64t36.5 147z" />
    <glyph glyph-name="ampersand" unicode="&#x26;" horiz-adv-x="638" 
d="M615 441l-21 -113q-21 -119 -79 -201l68 -82l-14 -77h-5l-91 110q-95 -90 -234 -90q-98 0 -158 50.5t-60 128.5q0 75 52.5 135t139.5 93q-50 80 -50 151q0 81 56.5 137.5t134.5 56.5q65 0 108 -40q44 -39 44 -99q0 -135 -189 -191l-9 12q147 56 147 184q0 53 -29.5 86.5
t-77.5 33.5q-60 0 -97.5 -48.5t-37.5 -106.5q0 -78 84 -181l209 -252q47 69 66 169q4 17 4 41q0 41 -15 77l50 16h4zM464 89l-209 251q-24 29 -34 44q-62 -31 -99.5 -87.5t-37.5 -120.5q0 -76 48.5 -122t127.5 -46q120 0 204 81z" />
    <glyph glyph-name="quotesingle" unicode="'" horiz-adv-x="142" 
d="M104 452l35 288h64l-89 -288h-10z" />
    <glyph glyph-name="parenleft" unicode="(" horiz-adv-x="224" 
d="M26 129q0 173 74 350q75 175 203 303l12 -9q-112 -113 -181.5 -310.5t-68.5 -378.5q0 -147 52 -241l-13 -9q-78 135 -78 295z" />
    <glyph glyph-name="parenright" unicode=")" horiz-adv-x="224" 
d="M-60 -166l-12 9q112 113 181.5 310.5t68.5 378.5q0 147 -52 241l13 9q78 -135 78 -295q0 -175 -75 -350q-73 -174 -202 -303z" />
    <glyph glyph-name="asterisk" unicode="*" horiz-adv-x="457" 
d="M468 619l-177 -75l177 -75l-27 -46l-153 116l24 -191h-54l24 191l-153 -116l-27 46l177 75l-177 75l27 46l153 -116l-24 191h54l-24 -191l153 116z" />
    <glyph glyph-name="plus" unicode="+" horiz-adv-x="508" 
d="M479 374v-20h-193v-200h-22v200h-193v20h193v200h22v-200h193z" />
    <glyph glyph-name="comma" unicode="," horiz-adv-x="170" 
d="M-35 -142l-5 7q75 42 75 100q0 45 -48 81l55 49q50 -27 50 -82q0 -44 -35 -86.5t-92 -68.5z" />
    <glyph glyph-name="hyphen" unicode="-" horiz-adv-x="298" 
d="M41 262l6 31h215l-6 -31h-215z" />
    <glyph glyph-name="period" unicode="." horiz-adv-x="166" 
d="M31 -20l-49 63l64 50l50 -63z" />
    <glyph glyph-name="slash" unicode="/" horiz-adv-x="374" 
d="M-43 -64l472 846h27l-472 -846h-27z" />
    <glyph glyph-name="zero" unicode="0" horiz-adv-x="619" 
d="M60 268q0 115 40 223q41 112 113 179q73 70 170 70q100 0 159 -75.5t59 -204.5q0 -116 -40 -224t-114 -179q-73 -69 -169 -69q-100 0 -159 75t-59 205zM533 490q0 112 -38.5 174t-112.5 62q-76 0 -135 -77q-56 -76 -88 -190q-30 -114 -30 -221q0 -112 38.5 -174
t111.5 -62q77 0 135 76q58 75 88 191q31 112 31 221z" />
    <glyph glyph-name="one" unicode="1" horiz-adv-x="270" 
d="M292 740h4l-158 -740h-64l135 628q-53 -35 -133 -58l2 12q127 45 214 158z" />
    <glyph glyph-name="two" unicode="2" horiz-adv-x="485" 
d="M46 48h75q98 0 153 4q47 3 142 16l-35 -68h-406v4l66 60q134 121 217 207q164 170 164 299q0 60 -33 96t-90 36q-111 0 -195 -126l-13 6q38 63 92 110q54 48 136 48q79 0 127.5 -45t48.5 -120q0 -73 -49 -149q-48 -75 -139 -160q-95 -87 -246 -206z" />
    <glyph glyph-name="three" unicode="3" horiz-adv-x="474" 
d="M-11 49l19 47q65 -92 158 -92q81 0 136.5 58.5t55.5 138.5q0 73 -49 120t-126 53l-2 12l38 10q76 19 128 76q52 55 52 126q0 50 -30 78.5t-81 28.5q-48 0 -94 -24.5t-77 -58.5l-12 6q89 112 202 112q70 0 115.5 -37t45.5 -98q0 -67 -54 -122t-125 -78l-1 -2
q57 -21 94 -69.5t37 -114.5q0 -95 -73.5 -163t-176.5 -68q-94 0 -180 61z" />
    <glyph glyph-name="four" unicode="4" horiz-adv-x="503" 
d="M481 257l-22 -47h-92l-44 -210h-65l45 210h-306v13l472 512h9l-101 -478h104zM55 257h258l77 364z" />
    <glyph glyph-name="five" unicode="5" horiz-adv-x="459" 
d="M463 676h-277l-54 -204q133 -10 208.5 -72.5t75.5 -161.5q0 -112 -73 -181.5t-183 -69.5q-83 0 -174 57l18 41q63 -81 160 -81q84 0 137.5 59t53.5 150q0 87 -69.5 139.5t-190.5 59.5l85 316h308z" />
    <glyph glyph-name="six" unicode="6" horiz-adv-x="515" 
d="M44 215q-2 115 52.5 226.5t150 191.5t208.5 107l2 -15q-100 -27 -180.5 -113t-122.5 -199t-41 -228q0 -87 34 -135t95 -48q75 -2 123 78.5t47 178.5q0 71 -33.5 111t-92.5 40q-52 0 -98 -34l-9 13q59 46 131 46q80 0 126 -52q48 -51 48 -131q2 -106 -73 -186.5
t-174 -77.5q-89 0 -141 60.5t-52 166.5z" />
    <glyph glyph-name="seven" unicode="7" horiz-adv-x="449" 
d="M120 728h414v-4l-406 -724h-69l428 676h-104q-191 0 -297 -24z" />
    <glyph glyph-name="eight" unicode="8" horiz-adv-x="517" 
d="M460 202q0 -90 -70.5 -152t-168.5 -62q-83 0 -140 44.5t-57 122.5t55 136t143 84q-97 69 -97 165q0 85 60.5 142.5t147.5 57.5q73 0 121.5 -43t48.5 -109q0 -68 -51 -122q-49 -52 -124 -78q55 -32 93 -73q39 -42 39 -113zM286 413l28 -16q62 33 97.5 86t35.5 114
q0 57 -32 93t-86 36q-63 0 -106 -49.5t-43 -113.5q0 -52 27 -86t79 -64zM405 175q0 40 -20 72q-17 29 -37 46t-57 40l-42 25l-13 8q-71 -29 -113 -87.5t-42 -127.5q0 -67 40.5 -108t105.5 -41q72 0 125 52.5t53 120.5z" />
    <glyph glyph-name="nine" unicode="9" horiz-adv-x="515" 
d="M103 -12l-2 15q100 27 180 113t122.5 199.5t40.5 227.5q0 87 -34 135t-95 48q-74 2 -122 -78.5t-47 -178.5q0 -71 33 -111t93 -40q52 0 98 34l9 -13q-59 -46 -131 -46q-80 0 -127 51q-47 53 -47 132q-2 106 72.5 186t174.5 78q89 0 141 -60.5t52 -166.5
q3 -176 -117.5 -330.5t-293.5 -194.5z" />
    <glyph glyph-name="colon" unicode=":" horiz-adv-x="222" 
d="M55 -20l-49 63l64 50l50 -63zM142 394l-49 63l64 50l50 -63z" />
    <glyph glyph-name="semicolon" unicode=";" horiz-adv-x="224" 
d="M-11 -142l-5 7q75 42 75 100q0 45 -48 81l55 49q50 -27 50 -82q0 -44 -35 -86.5t-92 -68.5zM146 394l-49 63l64 50l50 -63z" />
    <glyph glyph-name="less" unicode="&#x3c;" horiz-adv-x="508" 
d="M457 544l-379 -180l379 -180l-10 -18l-398 189v18l398 189z" />
    <glyph glyph-name="equal" unicode="=" horiz-adv-x="508" 
d="M68 426v20h408v-20h-408zM68 282v20h408v-20h-408z" />
    <glyph glyph-name="greater" unicode="&#x3e;" horiz-adv-x="508" 
d="M98 562l398 -189v-18l-398 -189l-10 18l379 180l-379 180z" />
    <glyph glyph-name="question" unicode="?" horiz-adv-x="452" 
d="M170 254q0 33 22.5 61.5t79.5 75.5q51 44 70 63q64 64 64 140q0 52 -34 83t-94 31q-90 0 -167 -77l-11 9q47 47 95 73.5t111 26.5q75 0 124 -40q50 -41 50 -104q0 -46 -24 -87q-22 -37 -53.5 -65.5t-91.5 -71.5q-63 -47 -87 -72t-24 -52q0 -36 47 -36q4 0 22 2l1 -14
q-22 -2 -24 -2q-34 0 -55 14.5t-21 41.5zM186 -20l-49 63l65 50l49 -63z" />
    <glyph glyph-name="at" unicode="@" horiz-adv-x="804" 
d="M502 210q0 12 1 15q-65 -96 -146 -96q-47 0 -77 31.5t-30 86.5q-3 100 76 193.5t172 90.5q70 0 103 -46l50 42h5l-87 -236q-20 -60 -20 -87q0 -47 50 -47q48 -2 92 41t68.5 108t23.5 127q2 124 -80.5 208.5t-209.5 82.5q-108 3 -206 -65.5t-154.5 -179t-54.5 -227.5
q-2 -144 88 -238.5t231 -92.5q117 0 212 63l8 -13q-101 -66 -226 -66q-152 -2 -252 97.5t-98 249.5q0 126 62 239q64 114 168 181q106 68 226 68q140 0 229.5 -87t89.5 -218q2 -115 -66.5 -207t-161.5 -89q-86 0 -86 71zM513 268l9 28l59 161q-26 58 -84 58q-47 2 -93 -41
t-72.5 -106t-25.5 -119q0 -45 20 -70t54 -25q73 0 133 114z" />
    <glyph glyph-name="A" unicode="A" horiz-adv-x="560" 
d="M428 0l-36 241h-278q-84 -155 -113 -241h-53q25 40 146 246l42 72l245 423h3l114 -741h-70zM124 259h265l-54 364l-181 -312z" />
    <glyph glyph-name="B" unicode="B" horiz-adv-x="585" 
d="M539 218q0 -101 -88.5 -159.5t-232.5 -58.5h-200l154 728h183q103 0 159 -40t56 -111q0 -77 -58 -131.5t-131 -67.5v-2q71 -15 114.5 -57t43.5 -101zM238 712l-70 -329h153q78 0 127.5 55t49.5 134q0 64 -39 102t-115 38h-106zM461 218q0 70 -45 109.5t-122 39.5h-129
l-72 -338q39 -13 116 -13q118 0 185 54t67 148z" />
    <glyph glyph-name="C" unicode="C" horiz-adv-x="663" 
d="M59 299q-1 116 47.5 218.5t137 163.5t194.5 59q86 0 153.5 -37.5t104.5 -102.5l-44 -32q-31 75 -86.5 115.5t-127.5 40.5q-85 2 -157 -59.5t-110.5 -156.5t-36.5 -196q0 -132 66.5 -211t177.5 -79q142 0 242 126l11 -8q-118 -152 -281 -152q-129 0 -210 85t-81 226z" />
    <glyph glyph-name="D" unicode="D" horiz-adv-x="696" 
d="M685 462q3 -199 -121 -332t-313 -130h-233l155 728h223q131 0 210 -72t79 -194zM610 460q0 115 -61 183.5t-169 68.5h-141l-146 -687q42 -9 164 -9q103 -2 185.5 60t126 164t41.5 220z" />
    <glyph glyph-name="E" unicode="E" horiz-adv-x="496" 
d="M297 710h-59l-68 -322h54q141 0 199 11h1l-8 -42h-2q-59 13 -194 13h-54l-74 -352h58q152 0 282 30h2l-26 -48h-390l155 728h377l1 -46h-2q-122 28 -252 28z" />
    <glyph glyph-name="F" unicode="F" horiz-adv-x="455" 
d="M279 710h-41l-71 -334h45q143 0 198 11h2l-9 -42h-1q-56 13 -194 13h-45l-76 -358h-69l155 728h359l2 -46h-2q-125 28 -253 28z" />
    <glyph glyph-name="G" unicode="G" horiz-adv-x="705" 
d="M442 312l-11 18h248l-58 -272q-108 -70 -243 -70q-144 0 -232.5 82.5t-88.5 222.5q-2 116 49 220t143.5 166.5t201.5 60.5q86 0 152.5 -36.5t102.5 -102.5l-42 -33q-33 75 -88 115.5t-127 40.5q-67 2 -128 -35.5t-102.5 -99.5t-65 -141.5t-22.5 -159.5
q0 -129 66.5 -206.5t182.5 -77.5q93 0 175 55l53 253h-166z" />
    <glyph glyph-name="H" unicode="H" horiz-adv-x="639" 
d="M595 728h69l-154 -728h-69l78 370h-354l-78 -370h-69l154 728h69l-72 -340h354z" />
    <glyph glyph-name="I" unicode="I" horiz-adv-x="217" 
d="M18 0l154 728h69l-154 -728h-69z" />
    <glyph glyph-name="J" unicode="J" horiz-adv-x="220" 
d="M-137 -150l-7 12q68 40 109 87q38 45 61 108q20 55 44 163l108 508h69l-106 -500q-25 -122 -60 -189q-32 -66 -81 -107q-49 -40 -137 -82z" />
    <glyph glyph-name="K" unicode="K" horiz-adv-x="573" 
d="M173 728h68l-154 -728h-69zM436 543l-61 -50l-110 -93l254 -331l-18 -84h-5l-295 388l162 136q158 132 232 219h65v-2q-108 -84 -224 -183z" />
    <glyph glyph-name="L" unicode="L" horiz-adv-x="407" 
d="M351 50h2l-27 -50h-308l155 728h69l-152 -710h22q109 0 239 32z" />
    <glyph glyph-name="M" unicode="M" horiz-adv-x="791" 
d="M717 728h62l-91 -728h-69l84 667l-366 -621h-4l-121 604l-100 -330q-59 -195 -82 -320h-46q40 100 108 321l112 369l-7 35v3h71l113 -570z" />
    <glyph glyph-name="N" unicode="N" horiz-adv-x="601" 
d="M591 728h47q-40 -121 -82 -318l-90 -422h-7l-280 652l-68 -322q-43 -206 -54 -318h-47q34 104 81 318l75 353l-23 54l1 3h72l258 -608l62 290q46 211 55 318z" />
    <glyph glyph-name="O" unicode="O" horiz-adv-x="772" 
d="M58 300q-2 116 50 218t144.5 163t200.5 59q134 0 219 -86t85 -226q2 -114 -50 -216t-145 -164t-201 -60q-134 0 -218.5 86t-84.5 226zM683 438q0 128 -64 207t-169 79q-89 2 -164 -62t-115.5 -164.5t-38.5 -207.5q0 -129 64 -207.5t169 -78.5q89 -2 164 62t115.5 164.5
t38.5 207.5z" />
    <glyph glyph-name="P" unicode="P" horiz-adv-x="515" 
d="M540 551q0 -110 -78.5 -177.5t-208.5 -67.5q-45 0 -99 9l-67 -315h-69l154 728h117q251 0 251 -177zM466 545q0 86 -43.5 126.5t-146.5 40.5h-38l-81 -380q53 -10 90 -10q103 0 161 63t58 160z" />
    <glyph glyph-name="Q" unicode="Q" horiz-adv-x="772" 
d="M801 -116v-4q-60 -30 -140 -30q-89 0 -163.5 36t-123.5 102h-13q-134 0 -218.5 86t-84.5 226q-2 116 50 218t144.5 163t200.5 59q134 0 219 -86t85 -226q2 -149 -86.5 -273.5t-220.5 -155.5q66 -67 121 -95q60 -29 139 -29q44 0 91 9zM365 4q89 -2 164 62t115.5 164.5
t38.5 207.5q0 128 -64 207t-169 79q-89 2 -164 -62t-115.5 -164.5t-38.5 -207.5q0 -129 64 -207.5t169 -78.5z" />
    <glyph glyph-name="R" unicode="R" horiz-adv-x="562" 
d="M339 343l160 -270l-18 -88h-4l-192 320q-8 14 -17 18.5t-31 4.5h-80l-70 -328h-69l155 728h127q119 0 183.5 -44t64.5 -120q0 -168 -209 -221zM476 558q0 154 -187 154h-50l-78 -361q35 -7 91 -7q93 0 158.5 61.5t65.5 152.5z" />
    <glyph glyph-name="S" unicode="S" horiz-adv-x="501" 
d="M3 58l22 48q31 -45 86 -73q58 -29 114 -29q74 0 124 48t50 116q0 38 -17 67t-37 46q-36 31 -65 52l-42 30l-50 36q-87 63 -87 151q0 81 63.5 135.5t154.5 54.5q52 0 104.5 -20t86.5 -49l-18 -43q-32 43 -79 69.5t-99 26.5q-67 0 -111 -42t-44 -103q0 -34 16 -60
q15 -24 35 -42t67 -53l42 -31l16 -12q38 -27 64 -51q56 -49 56 -125q0 -93 -69 -155t-168 -62q-52 0 -111 20t-104 50z" />
    <glyph glyph-name="T" unicode="T" horiz-adv-x="513" 
d="M589 728l2 -49h-2q-97 31 -181 31h-24l-150 -710h-69l150 710h-23q-83 0 -194 -31h-2l22 49h471z" />
    <glyph glyph-name="U" unicode="U" horiz-adv-x="609" 
d="M57 180q0 36 9 76l100 472h69l-100 -469q-9 -42 -9 -79q0 -79 41.5 -122t118.5 -43q176 0 226 225l36 170q39 184 55 318h46q-37 -116 -81 -318l-35 -165q-28 -129 -94.5 -193t-178.5 -64q-97 0 -150 50.5t-53 141.5z" />
    <glyph glyph-name="V" unicode="V" horiz-adv-x="562" 
d="M604 728h53q-70 -115 -174 -292l-15 -26l-245 -423h-3l-114 741h69l94 -623l180 313q67 118 102 186q32 63 53 124z" />
    <glyph glyph-name="W" unicode="W" horiz-adv-x="876" 
d="M917 728h48q-107 -196 -171 -319l-222 -422h-3l-62 605l-322 -605h-4l-74 741h69l59 -605l322 605h4l61 -604l153 292q98 183 142 312z" />
    <glyph glyph-name="X" unicode="X" horiz-adv-x="558" 
d="M398 463l-57 -65l160 -315l-20 -98h-5l-187 364l-83 -96q-122 -141 -185 -253h-72q85 86 243 264l88 103l-185 361h77l159 -312l51 58q139 159 193 254h64q-94 -94 -241 -265z" />
    <glyph glyph-name="Y" unicode="Y" horiz-adv-x="530" 
d="M390 431l-78 -104l-70 -327h-69l71 331l-130 397h73l119 -381l70 93q131 173 188 288h50q-64 -82 -224 -297z" />
    <glyph glyph-name="Z" unicode="Z" horiz-adv-x="488" 
d="M572 728l-1 -4l-525 -706h73q190 0 311 30h1l-26 -48h-453l1 4l526 706h-60q-193 0 -302 -28h-2l21 46h436z" />
    <glyph glyph-name="bracketleft" unicode="[" horiz-adv-x="229" 
d="M123 308q-49 -231 -117 -462h135l-3 -12h-160l202 948h160l-3 -12h-136q-31 -249 -78 -462z" />
    <glyph glyph-name="backslash" unicode="\" horiz-adv-x="360" 
d="M244 -64l-112 846h24l112 -846h-24z" />
    <glyph glyph-name="bracketright" unicode="]" horiz-adv-x="230" 
d="M110 782h160l-202 -948h-160l3 12h136q31 249 78 462q49 231 117 462h-135z" />
    <glyph glyph-name="asciicircum" unicode="^" horiz-adv-x="508" 
d="M495 358l-18 -10l-197 354l-197 -354l-18 10l213 382h4z" />
    <glyph glyph-name="underscore" unicode="_" horiz-adv-x="377" 
d="M-75 -86l4 22h380l-4 -22h-380z" />
    <glyph glyph-name="grave" unicode="`" horiz-adv-x="600" 
d="M299 606l-121 170h86l43 -165z" />
    <glyph glyph-name="a" unicode="a" horiz-adv-x="545" 
d="M426 51q0 -17 9 -24.5t32 -7.5q1 0 19 2l-2 -6q-42 -20 -69 -20q-51 0 -51 56q0 19 4 35l30 140h-9q-48 -116 -111.5 -177t-136.5 -61q-61 0 -93.5 41t-32.5 115q0 84 41 177t113 155q74 62 161 62q85 0 135 -65l58 62h4l-94 -440q-7 -29 -7 -44zM440 427q-36 95 -117 95
q-64 0 -120 -62q-55 -62 -86 -150q-31 -87 -31 -159q0 -58 21.5 -94t61.5 -36q71 -3 151.5 116.5t119.5 289.5z" />
    <glyph glyph-name="b" unicode="b" horiz-adv-x="529" 
d="M513 383q0 -85 -41 -179q-41 -93 -114 -154q-73 -62 -160 -62q-90 0 -138 73l-53 -62h-4l167 788l64 23h4l-108 -510h9q48 116 111.5 177t136.5 61q61 0 93.5 -41t32.5 -114zM443 375q0 58 -21.5 94.5t-61.5 36.5q-71 3 -152 -116.5t-120 -290.5q36 -95 118 -95
q65 0 119 62q54 60 86 150t32 159z" />
    <glyph glyph-name="c" unicode="c" horiz-adv-x="467" 
d="M22 185q-1 85 40.5 168t112.5 135t148 50q121 0 158 -99l-39 -30q-18 59 -45 87t-74 28q-60 2 -115 -51t-86 -131.5t-29 -152.5q0 -78 36.5 -123t99.5 -45q46 0 97 26.5t89 72.5l10 -7q-101 -125 -223 -125q-81 0 -130.5 53.5t-49.5 143.5z" />
    <glyph glyph-name="d" unicode="d" horiz-adv-x="529" 
d="M582 810h4l-172 -810h-64l48 226h-9q-48 -116 -111.5 -177t-136.5 -61q-61 0 -93.5 41t-32.5 115q0 84 41 177t113 155q74 62 161 62q77 0 123 -52l64 301zM440 427q-36 95 -117 95q-64 0 -120 -62q-55 -62 -86 -150q-31 -87 -31 -159q0 -58 21.5 -94t61.5 -36
q71 -3 151.5 116.5t119.5 289.5z" />
    <glyph glyph-name="e" unicode="e" horiz-adv-x="456" 
d="M94 228q-3 -21 -3 -42q0 -76 31.5 -120.5t83.5 -44.5q43 0 91 26.5t89 74.5l11 -7q-101 -127 -221 -127q-70 0 -112 50t-42 140q-1 88 39 172t113 137t156 51q61 0 97 -25t36 -68q0 -75 -106 -129q-111 -55 -263 -88zM96 243q125 30 214 82q90 53 90 123q0 33 -20.5 54.5
t-56.5 21.5q-80 3 -146.5 -85t-80.5 -196z" />
    <glyph glyph-name="f" unicode="f" horiz-adv-x="322" 
d="M494 775l-8 -12q-46 24 -100 24q-116 0 -151 -164l-21 -97h164l-17 -22h-151l-113 -531q-18 -84 -78 -136.5t-151 -64.5l-1 12q61 11 105 60.5t61 126.5l114 533h-76l5 22h75l22 101q20 92 70 139.5t123 47.5q72 0 128 -39z" />
    <glyph glyph-name="g" unicode="g" horiz-adv-x="468" 
d="M524 568l-22 -67q-26 8 -47 8q-43 0 -65 -22q42 -43 42 -112q0 -75 -52 -127q-53 -53 -128 -69l-31 -7q-76 -16 -104.5 -27t-28.5 -30q0 -11 14 -18.5t49 -16.5l111 -27q133 -34 133 -120q0 -65 -74.5 -119t-178.5 -54q-87 0 -143 39t-56 100q0 49 35 99l41 9h4
q-34 -56 -34 -109q0 -57 42 -89.5t117 -32.5q83 0 139.5 39t56.5 89q0 67 -103 92l-114 29q-48 13 -70 27.5t-22 38.5q0 30 37.5 51t116.5 37q-62 10 -99 53t-37 105q0 82 62 142t147 60q71 0 118 -42q63 71 144 71zM369 394q0 58 -28.5 93.5t-76.5 35.5q-63 2 -106.5 -63
t-41.5 -141q0 -57 28.5 -92t76.5 -35q64 0 106 62t42 140z" />
    <glyph glyph-name="h" unicode="h" horiz-adv-x="522" 
d="M492 417q0 -35 -9 -75l-73 -342h-64l75 349q7 29 7 65q0 92 -68 92q-81 0 -161 -131.5t-133 -374.5h-63l167 787l64 23h4l-113 -534h9q102 262 253 262q105 0 105 -121z" />
    <glyph glyph-name="i" unicode="i" horiz-adv-x="190" 
d="M176 633l-45 59l60 47l46 -59zM6 0l110 513l64 22h4l-114 -535h-64z" />
    <glyph glyph-name="j" unicode="j" horiz-adv-x="193" 
d="M180 633l-46 59l61 47l46 -59zM-160 -228l-1 12q62 11 105.5 60.5t59.5 126.5l115 542l65 22h4l-120 -562q-18 -84 -78 -136.5t-150 -64.5z" />
    <glyph glyph-name="k" unicode="k" horiz-adv-x="459" 
d="M234 810h4l-172 -810h-63l167 787zM263 355l-46 -36l188 -254l-16 -80h-5l-227 310l96 76q117 91 188 155h60v-2q-103 -65 -238 -169z" />
    <glyph glyph-name="l" unicode="l" horiz-adv-x="189" 
d="M6 0l168 787l64 23h4l-172 -810h-64z" />
    <glyph glyph-name="m" unicode="m" horiz-adv-x="846" 
d="M816 417q0 -35 -9 -75l-73 -342h-64l75 349q7 29 7 64q0 93 -68 93q-79 0 -155 -130t-129 -376h-63l74 349q7 29 7 64q0 93 -68 93q-79 0 -155 -130t-129 -376h-63l109 513l65 22h4l-56 -259h7q99 262 245 262q105 0 105 -122q0 -37 -8 -74l-14 -66h5q97 262 246 262
q105 0 105 -121z" />
    <glyph glyph-name="n" unicode="n" horiz-adv-x="522" 
d="M492 417q0 -35 -9 -75l-73 -342h-64l75 349q7 29 7 64q0 93 -68 93q-81 0 -161 -131t-133 -375h-63l109 513l65 22h4l-56 -259h9q102 262 253 262q105 0 105 -121z" />
    <glyph glyph-name="o" unicode="o" horiz-adv-x="529" 
d="M27 205q-2 131 84 233.5t201 99.5q88 0 139 -58.5t51 -158.5q1 -85 -37.5 -163t-105.5 -125t-142 -45q-88 0 -139 58.5t-51 158.5zM431 336q0 85 -31.5 136.5t-88.5 51.5q-54 2 -104.5 -48t-80 -129t-28.5 -157q0 -85 31.5 -136.5t87.5 -51.5q54 -2 104.5 48t80.5 129
t29 157z" />
    <glyph glyph-name="p" unicode="p" horiz-adv-x="529" 
d="M513 383q0 -85 -41 -179q-41 -93 -114 -154q-73 -62 -160 -62q-78 0 -123 53l-58 -269h-63l158 741l64 22h4l-50 -235h9q48 116 111.5 177t136.5 61q61 0 93.5 -41t32.5 -114zM443 375q0 58 -21.5 94.5t-61.5 36.5q-71 3 -152 -116.5t-120 -290.5q36 -95 118 -95
q65 0 119 62q54 60 86 150t32 159z" />
    <glyph glyph-name="q" unicode="q" horiz-adv-x="529" 
d="M522 535h5l-162 -763h-64l97 454h-9q-48 -116 -111.5 -177t-136.5 -61q-61 0 -93.5 41t-32.5 115q0 84 41 177t113 155q74 62 161 62t134 -65zM440 427q-36 95 -117 95q-64 0 -120 -62q-55 -62 -86 -150q-31 -87 -31 -159q0 -58 21.5 -94t61.5 -36q71 -3 151.5 116.5
t119.5 289.5z" />
    <glyph glyph-name="r" unicode="r" horiz-adv-x="339" 
d="M384 531l-32 -53q-16 9 -39 9q-25 1 -56.5 -30.5t-65 -90.5t-67 -154.5t-58.5 -211.5h-63l109 513l65 22h4l-56 -259h6q48 128 103.5 194t113.5 66q18 0 36 -5z" />
    <glyph glyph-name="s" unicode="s" horiz-adv-x="384" 
d="M-15 52l18 39q25 -40 65.5 -64.5t87.5 -24.5q56 0 92.5 33t36.5 82q-1 22 -6 37t-18.5 29.5t-24 22.5t-39.5 28l-34 22q-55 36 -77.5 63.5t-25.5 78.5q0 63 45 101.5t115 38.5q44 0 87.5 -15t71.5 -39l-16 -37q-27 33 -65.5 55t-79.5 22q-47 0 -77.5 -29t-30.5 -72
q0 -27 12 -46q8 -13 19.5 -24t18.5 -16t36 -25l34 -22q29 -19 54 -40q50 -39 50 -107t-50 -111.5t-125 -43.5q-104 0 -174 64z" />
    <glyph glyph-name="t" unicode="t" horiz-adv-x="327" 
d="M203 504l-79 -376q-7 -32 -7 -56q0 -51 39 -51q45 0 130 85l11 -10q-45 -51 -91 -79.5t-82 -28.5q-72 0 -72 80q0 26 6 54l82 382h-74l3 17l70 5l100 162h4l-35 -162h167l-18 -22h-154z" />
    <glyph glyph-name="u" unicode="u" horiz-adv-x="521" 
d="M515 535h4l-114 -535h-63l53 250h-8q-102 -262 -259 -262q-101 0 -101 115q0 36 10 82l71 328l64 22h4l-77 -358q-9 -45 -9 -71q0 -85 65 -85q82 0 163.5 127t132.5 365z" />
    <glyph glyph-name="v" unicode="v" horiz-adv-x="445" 
d="M447 526h50q-57 -87 -182 -293l-148 -245h-7l-97 538h65l78 -438l92 152q120 197 149 286z" />
    <glyph glyph-name="w" unicode="w" horiz-adv-x="698" 
d="M696 526h50q-59 -95 -172 -299l-134 -239h-6l-52 423l-232 -423h-7l-80 538h64l62 -428l235 428h7l51 -425l75 134q112 202 139 291z" />
    <glyph glyph-name="x" unicode="x" horiz-adv-x="413" 
d="M289 348l-46 -53l111 -221l-18 -89h-4l-136 269l-71 -82q-87 -102 -119 -172h-61q33 32 144 158l21 24l77 89l-128 255h68l108 -214l39 45q89 100 126 169h53q-60 -57 -164 -178z" />
    <glyph glyph-name="y" unicode="y" horiz-adv-x="442" 
d="M441 526h50q-53 -82 -177 -294l-185 -317q-52 -88 -103 -118.5t-122 -30.5l14 48q17 -5 37 -5q41 0 81.5 27t72.5 81l51 88l-99 521h65l83 -438l88 150q111 190 144 288z" />
    <glyph glyph-name="z" unicode="z" horiz-adv-x="392" 
d="M429 526l-1 -4l-387 -507h66q117 0 226 23h3l-18 -38h-361l1 4l387 507h-59q-110 0 -216 -20h-3l15 35h347z" />
    <glyph glyph-name="braceleft" unicode="{" horiz-adv-x="258" 
d="M365 782l-3 -12q-86 0 -128 -37.5t-42 -117.5q0 -19 7 -75q7 -38 7 -67q0 -62 -39.5 -107.5t-103.5 -57.5q40 -9 64.5 -35.5t24.5 -64.5q0 -48 -53 -137q-56 -95 -56 -146q0 -79 123 -79l-3 -12q-85 0 -125 24t-40 76q0 39 14 73.5t47 88.5q50 83 50 126q0 36 -22 57.5
t-61 22.5l2 12q55 1 91 40t36 98q0 29 -7 67q-7 52 -7 77q0 98 55.5 142t168.5 44z" />
    <glyph glyph-name="bar" unicode="|" horiz-adv-x="163" 
d="M0 -64l180 846h24l-180 -846h-24z" />
    <glyph glyph-name="braceright" unicode="}" horiz-adv-x="258" 
d="M251 314l-2 -12q-55 -1 -92 -40q-36 -39 -36 -98q0 -29 7 -67q8 -51 8 -77q0 -98 -55.5 -142t-168.5 -44l3 12q86 0 128 37.5t42 117.5q0 24 -8 75q0 3 -2 16t-3.5 27t-1.5 24q0 63 40 108t104 57q-40 9 -64.5 35.5t-24.5 64.5q0 48 53 137q30 54 42.5 84.5t12.5 61.5
q0 41 -29.5 60t-92.5 19l3 12q85 0 124.5 -24t39.5 -76q0 -39 -13.5 -73t-46.5 -89q-50 -83 -50 -126q0 -36 22 -57.5t61 -22.5z" />
    <glyph glyph-name="asciitilde" unicode="~" horiz-adv-x="516" 
d="M77 315l-12 3q42 112 122 112q41 0 109 -44q67 -40 98 -40q57 0 93 85l12 -3q-43 -112 -122 -112q-40 0 -109 44q-67 40 -98 40q-57 0 -93 -85z" />
    <glyph glyph-name="uni00A0" unicode="&#xa0;" horiz-adv-x="210" 
 />
    <glyph glyph-name="exclamdown" unicode="&#xa1;" horiz-adv-x="183" 
d="M144 538l49 -63l-64 -50l-49 63zM111 320l-82 -530h-74l141 530h15z" />
    <glyph glyph-name="cent" unicode="&#xa2;" horiz-adv-x="518" 
d="M363 523l-151 -498q13 -4 37 -4q50 0 104 26t95 73l10 -7q-108 -125 -237 -125q-16 0 -20 1l-27 -89h-20l27 91q-70 12 -110.5 64.5t-40.5 132.5q-2 87 41.5 169.5t117.5 132.5t154 48h5l26 86h20l-26 -87q111 -9 155 -93l-40 -30q-42 99 -120 109zM193 31l151 493h-1
q-64 3 -121 -48.5t-89 -129t-31 -153.5q0 -62 24 -104t67 -58z" />
    <glyph glyph-name="sterling" unicode="&#xa3;" horiz-adv-x="525" 
d="M198 501q0 -31 7 -102l3 -25h192l-3 -18h-187q3 -26 3 -48q0 -132 -117 -223q40 -1 118 -25q73 -22 110 -22q83 0 125 85l19 40h10l-12 -38q-18 -56 -53 -97q-34 -40 -106 -40q-48 0 -150 35q-60 20 -77 20q-29 0 -87 -44l-9 18q61 42 97 78q70 73 70 195q0 24 -5 66h-82
l4 18h76q-12 79 -12 124q0 105 56 173.5t147 68.5q130 0 179 -139l-12 -7q-24 53 -66.5 80.5t-90.5 27.5q-70 0 -108.5 -55.5t-38.5 -145.5z" />
    <glyph glyph-name="currency" unicode="&#xa4;" horiz-adv-x="537" 
d="M412 215l71 -71l-14 -14l-71 71q-50 -44 -117 -44t-117 44l-71 -71l-14 14l71 71q-45 51 -45 117t45 117l-71 71l14 14l71 -71q50 44 117 44t117 -44l71 71l14 -14l-71 -71q45 -51 45 -117t-45 -117zM435 332q0 63 -45.5 109t-108.5 46t-108.5 -46t-45.5 -109t45.5 -109
t108.5 -46t108.5 46t45.5 109z" />
    <glyph glyph-name="yen" unicode="&#xa5;" horiz-adv-x="548" 
d="M397 431l-67 -89h156l-4 -18h-165l-20 -98h164l-4 -18h-164l-44 -208h-69l44 208h-160l4 18h160l21 98h-160l4 18h154l-126 386h73l119 -381l69 93q134 176 189 288h50q-64 -82 -224 -297z" />
    <glyph glyph-name="brokenbar" unicode="&#xa6;" horiz-adv-x="163" 
d="M101 409l79 373h24l-79 -373h-24zM0 -64l79 373h24l-79 -373h-24z" />
    <glyph glyph-name="section" unicode="&#xa7;" horiz-adv-x="525" 
d="M502 684l-17 -33q-29 32 -68.5 53.5t-77.5 21.5q-58 0 -95 -37.5t-37 -96.5q0 -31 13 -56q11 -20 34 -47l67 -64l30 -28q44 -40 83 -105q38 -62 38 -131q3 -102 -83.5 -188.5t-188.5 -84.5q-37 0 -86 17q-45 15 -76 40l17 32q29 -32 69.5 -53.5t80.5 -21.5q60 0 97 37
t37 97q0 29 -14 55q-15 28 -34 47q-15 17 -66 65l-30 28q-43 40 -83 103q-38 64 -38 133q-3 100 84 188t186 85q36 0 81.5 -16.5t76.5 -39.5zM178 568q0 68 51 124q-119 -82 -119 -199q0 -111 118 -222l30 -28q38 -36 56 -57q54 -60 54 -126q0 -69 -51 -124q119 82 119 199
q0 109 -117 221l-30 28q-35 33 -57 57q-54 60 -54 127z" />
    <glyph glyph-name="dieresis" unicode="&#xa8;" horiz-adv-x="600" 
d="M204 624l-42 54l56 44l42 -55zM382 624l-42 54l56 44l42 -55z" />
    <glyph glyph-name="copyright" unicode="&#xa9;" horiz-adv-x="841" 
d="M67 364q-3 153 109.5 266t265.5 110q100 2 187.5 -49.5t138.5 -139t49 -187.5q2 -100 -49 -187.5t-138.5 -139t-187.5 -49.5q-153 -3 -265.5 110t-109.5 266zM795 364q3 146 -103 253.5t-250 104.5q-144 3 -250 -104.5t-103 -253.5q-3 -146 103 -253.5t250 -104.5
q144 -3 250 104.5t103 253.5zM222 361q0 101 62.5 166t157.5 65q110 0 170 -85l-34 -18q-56 89 -141 89q-71 0 -118 -58t-47 -151t48.5 -150t120.5 -57q46 0 91 23.5t72 63.5l12 -7q-72 -106 -187 -106q-89 0 -148 63t-59 162z" />
    <glyph glyph-name="ordfeminine" unicode="&#xaa;" horiz-adv-x="385" 
d="M352 433q0 -20 25 -20l12 1l-1 -3q-22 -13 -48 -13q-32 0 -32 34q0 5 3 23l19 87h-4q-66 -148 -158 -148q-39 0 -60.5 26t-21.5 71q-1 53 25 111.5t74 99t102 38.5q56 0 86 -41l40 39h3l-60 -277q-4 -20 -4 -28zM356 670q-21 60 -73 60q-39 2 -75 -38.5t-56 -95.5
t-19 -100q0 -35 14 -58.5t38 -23.5q45 -2 96 73.5t75 182.5z" />
    <glyph glyph-name="guillemotleft" unicode="&#xab;" horiz-adv-x="454" 
d="M289 504l-187 -246l84 -234h-12l-143 240l246 240h12zM468 504l-187 -246l85 -234h-12l-144 240l246 240h12z" />
    <glyph glyph-name="logicalnot" unicode="&#xac;" horiz-adv-x="508" 
d="M48 374h408v-220h-22v200h-386v20z" />
    <glyph glyph-name="uni00AD" unicode="&#xad;" horiz-adv-x="298" 
d="M41 262l6 31h215l-6 -31h-215z" />
    <glyph glyph-name="registered" unicode="&#xae;" horiz-adv-x="636" 
d="M633 469q2 -109 -80 -190.5t-191 -79.5q-110 -2 -192 79.5t-80 190.5q-2 108 80 190.5t192 80.5q109 2 191 -80.5t80 -190.5zM611 471q2 101 -73.5 177t-175.5 74q-101 2 -176.5 -74t-73.5 -177q-2 -101 73.5 -177.5t176.5 -74.5q100 -2 175.5 74.5t73.5 177.5zM521 309
v-6q-10 -2 -18 -2q-25 0 -41 11t-32 34l-60 93q-5 10 -24 10h-40v-147h-29v331h63q129 0 129 -86q0 -59 -77 -90l67 -99q34 -49 62 -49zM437 544q0 36 -25 56t-72 20h-34v-156q16 -3 45 -3q37 0 61.5 23.5t24.5 59.5z" />
    <glyph glyph-name="overscore" unicode="&#xaf;" horiz-adv-x="600" 
d="M167 654l5 25h262l-5 -25h-262z" />
    <glyph glyph-name="degree" unicode="&#xb0;" horiz-adv-x="339" 
d="M101 613q0 58 41 98.5t99 40.5t99 -40.5t41 -98.5t-41 -98.5t-99 -40.5t-99 40.5t-41 98.5zM359 613q0 50 -35 85q-35 36 -83 36q-49 0 -84 -36q-34 -34 -34 -85t34 -86q35 -35 84 -35q48 0 83 35q35 37 35 86z" />
    <glyph glyph-name="plusminus" unicode="&#xb1;" horiz-adv-x="508" 
d="M253 374h193v-20h-193v-200h-22v200h-193v20h193v200h22v-200zM38 0v20h408v-20h-408z" />
    <glyph glyph-name="uni00B2" unicode="&#xb2;" horiz-adv-x="295" 
d="M82 344h36q94 0 171 11l-22 -43h-233l1 3l38 34q114 102 165 166.5t51 121.5q0 33 -18 52t-49 19q-59 0 -105 -67l-10 5q50 88 130 88q45 0 73 -26t28 -70q0 -35 -26 -73q-27 -40 -77 -87q-51 -48 -149 -131z" />
    <glyph glyph-name="uni00B3" unicode="&#xb3;" horiz-adv-x="294" 
d="M48 340l13 29q35 -51 89 -51q47 0 77 32.5t30 77.5q0 42 -24.5 65t-75.5 31l-1 10l22 6q45 11 72 41.5t27 69.5q0 27 -18 43t-46 16q-48 0 -93 -47l-9 6q54 65 116 65q44 0 69.5 -21t25.5 -57q0 -39 -28 -68t-72 -44v-2q33 -9 54.5 -37.5t21.5 -64.5q0 -57 -43.5 -95.5
t-105.5 -38.5q-51 0 -101 34z" />
    <glyph glyph-name="acute" unicode="&#xb4;" horiz-adv-x="600" 
d="M273 606l-7 5l115 165h86z" />
    <glyph glyph-name="uni00B5" unicode="&#xb5;" horiz-adv-x="543" 
d="M529 535h4l-114 -535h-63l53 250h-8q-103 -262 -259 -262q-56 0 -81 36q-4 -111 -18 -176l-13 -60h-63l83 397l72 328l64 22h4l-77 -358q-9 -45 -9 -71q0 -85 65 -85q82 0 163.5 127t132.5 365z" />
    <glyph glyph-name="paragraph" unicode="&#xb6;" horiz-adv-x="471" 
d="M93 566q0 97 68.5 156.5t178.5 59.5h37l-179 -846h-24l93 440q-79 5 -126.5 56.5t-47.5 133.5zM477 782h24l-173 -817q-17 -78 -67 -129t-122 -64l3 17q62 13 104.5 59t57.5 117z" />
    <glyph glyph-name="middot" unicode="&#xb7;" horiz-adv-x="190" 
d="M91 226l-49 63l64 50l50 -63z" />
    <glyph glyph-name="cedilla" unicode="&#xb8;" horiz-adv-x="600" 
d="M398 -130q0 -38 -30 -62.5t-75 -24.5q-41 0 -85 21l5 9q24 -15 66 -15q33 0 56 16t23 40q0 19 -19.5 33t-49.5 15l-25 1l65 97h21l-37 -56q41 -5 63 -24.5t22 -49.5z" />
    <glyph glyph-name="uni00B9" unicode="&#xb9;" horiz-adv-x="179" 
d="M220 734h4l-90 -422h-42l74 350q-20 -12 -71 -27l2 10q65 20 123 89z" />
    <glyph glyph-name="ordmasculine" unicode="&#xba;" horiz-adv-x="374" 
d="M91 533q0 85 51.5 146t127.5 61q62 0 99.5 -39t37.5 -102q0 -84 -51.5 -145.5t-127.5 -61.5q-63 0 -100 38.5t-37 102.5zM359 607q0 55 -24 88t-65 33q-55 0 -93 -63.5t-38 -139.5q0 -55 23.5 -88t64.5 -33q57 0 94.5 63t37.5 140z" />
    <glyph glyph-name="guillemotright" unicode="&#xbb;" horiz-adv-x="454" 
d="M100 504l143 -240l-246 -240h-12l187 246l-84 234h12zM280 504l143 -240l-246 -240h-12l187 246l-84 234h12z" />
    <glyph glyph-name="onequarter" unicode="&#xbc;" horiz-adv-x="743" 
d="M233 734h4l-90 -422h-42l74 350q-20 -12 -71 -27l2 10q65 20 123 89zM37 0l594 728h25l-594 -728h-25zM696 148l-16 -30h-53l-25 -118h-43l25 118h-172v9l271 294h8l-58 -273h63zM453 148h137l40 193z" />
    <glyph glyph-name="onehalf" unicode="&#xbd;" horiz-adv-x="714" 
d="M230 734h4l-90 -422h-42l74 350q-20 -12 -71 -27l2 10q65 20 123 89zM34 0l594 728h25l-594 -728h-25zM432 32h36q94 0 171 11l-22 -43h-233l1 3l38 34q114 102 165 166.5t51 121.5q0 33 -18 52t-49 19q-59 0 -105 -67l-10 5q50 88 130 88q45 0 73 -26t28 -70
q0 -35 -26 -73q-27 -40 -77 -87q-51 -48 -149 -131z" />
    <glyph glyph-name="threequarters" unicode="&#xbe;" horiz-adv-x="802" 
d="M54 340l13 29q35 -51 89 -51q47 0 77 32.5t30 77.5q0 42 -24.5 65t-75.5 31l-1 10l22 6q45 11 72 41.5t27 69.5q0 27 -18 43t-46 16q-48 0 -93 -47l-9 6q54 65 116 65q44 0 69.5 -21t25.5 -57q0 -39 -28 -68t-72 -44v-2q33 -9 54.5 -37.5t21.5 -64.5q0 -57 -43.5 -95.5
t-105.5 -38.5q-51 0 -101 34zM95 0l594 728h25l-594 -728h-25zM754 148l-16 -30h-53l-25 -118h-43l25 118h-172v9l271 294h8l-58 -273h63zM511 148h137l40 193z" />
    <glyph glyph-name="questiondown" unicode="&#xbf;" horiz-adv-x="444" 
d="M259 538l49 -63l-65 -50l-49 63zM275 264q0 -33 -22.5 -61.5t-79.5 -75.5q-51 -44 -71 -64q-63 -63 -63 -139q0 -52 34 -83t94 -31q90 0 167 77l11 -9q-47 -47 -95 -73.5t-111 -26.5q-76 0 -125 40t-49 104q0 46 24 87q22 37 53.5 65.5t91.5 71.5q63 47 87 72t24 52
q0 36 -47 36q-4 0 -22 -2l-1 14q22 2 24 2q34 0 55 -14.5t21 -41.5z" />
    <glyph glyph-name="Agrave" unicode="&#xc0;" horiz-adv-x="560" 
d="M428 0l-36 241h-278q-84 -155 -113 -241h-53q25 40 146 246l42 72l245 423h3l114 -741h-70zM124 259h265l-54 364l-181 -312zM408 802l-132 160h98l42 -155z" />
    <glyph glyph-name="Aacute" unicode="&#xc1;" horiz-adv-x="560" 
d="M428 0l-36 241h-278q-84 -155 -113 -241h-53q25 40 146 246l42 72l245 423h3l114 -741h-70zM124 259h265l-54 364l-181 -312zM382 802l-6 5l110 155h98z" />
    <glyph glyph-name="Acircumflex" unicode="&#xc2;" horiz-adv-x="560" 
d="M428 0l-36 241h-278q-84 -155 -113 -241h-53q25 40 146 246l42 72l245 423h3l114 -741h-70zM124 259h265l-54 364l-181 -312zM559 807l-6 -5l-133 97l-182 -97l-6 5l195 155h6z" />
    <glyph glyph-name="Atilde" unicode="&#xc3;" horiz-adv-x="560" 
d="M428 0l-36 241h-278q-84 -155 -113 -241h-53q25 40 146 246l42 72l245 423h3l114 -741h-70zM124 259h265l-54 364l-181 -312zM236 814l-9 2q34 97 102 97q35 0 97 -30q62 -27 85 -27q41 0 70 57l9 -2q-34 -97 -102 -97q-31 0 -96 29q-57 27 -86 27q-41 0 -70 -56z" />
    <glyph glyph-name="Adieresis" unicode="&#xc4;" horiz-adv-x="560" 
d="M428 0l-36 241h-278q-84 -155 -113 -241h-53q25 40 146 246l42 72l245 423h3l114 -741h-70zM124 259h265l-54 364l-181 -312zM311 820l-43 54l56 44l42 -55zM495 820l-42 54l56 44l42 -55z" />
    <glyph glyph-name="Aring" unicode="&#xc5;" horiz-adv-x="560" 
d="M428 0l-36 241h-278q-84 -155 -113 -241h-53q25 40 146 246l42 72l245 423h3l114 -741h-70zM124 259h265l-54 364l-181 -312zM314 898q0 42 29.5 69.5t71.5 27.5t71.5 -27.5t29.5 -69.5q0 -41 -29.5 -68.5t-71.5 -27.5t-71.5 27.5t-29.5 68.5zM480 898q0 39 -17 62
t-48 23t-48 -23t-17 -62t17 -61.5t48 -22.5t48 22.5t17 61.5z" />
    <glyph glyph-name="AE" unicode="&#xc6;" horiz-adv-x="827" 
d="M629 710h-60l-68 -322h54q141 0 199 11h2l-9 -42h-2q-56 13 -193 13h-55l-74 -352h59q150 0 281 30h2l-26 -48h-388l55 262h-243q-109 -147 -169 -262h-56l557 728h386l2 -46h-2q-125 28 -252 28zM176 280h234l90 424l-301 -394z" />
    <glyph glyph-name="Ccedilla" unicode="&#xc7;" horiz-adv-x="663" 
d="M134 312q0 -132 66.5 -211t177.5 -79q142 0 242 126l11 -8q-113 -145 -267 -152l-29 -43q41 -6 63.5 -26.5t22.5 -48.5q0 -38 -30.5 -62.5t-75.5 -24.5q-41 0 -85 21l5 9q24 -15 66 -15q33 0 56 16t23 40q0 19 -19.5 33t-49.5 15l-24 1l57 85q-127 2 -206 87t-79 224
q-1 116 47.5 218.5t137 163.5t194.5 59q86 0 153.5 -37.5t104.5 -102.5l-44 -32q-31 75 -86.5 115.5t-127.5 40.5q-85 2 -157 -59.5t-110.5 -156.5t-36.5 -196z" />
    <glyph glyph-name="Egrave" unicode="&#xc8;" horiz-adv-x="496" 
d="M297 710h-59l-68 -322h54q141 0 199 11h1l-8 -42h-2q-59 13 -194 13h-54l-74 -352h58q152 0 282 30h2l-26 -48h-390l155 728h377l1 -46h-2q-122 28 -252 28zM390 802l-132 160h98l42 -155z" />
    <glyph glyph-name="Eacute" unicode="&#xc9;" horiz-adv-x="496" 
d="M297 710h-59l-68 -322h54q141 0 199 11h1l-8 -42h-2q-59 13 -194 13h-54l-74 -352h58q152 0 282 30h2l-26 -48h-390l155 728h377l1 -46h-2q-122 28 -252 28zM365 802l-6 5l110 155h98z" />
    <glyph glyph-name="Ecircumflex" unicode="&#xca;" horiz-adv-x="496" 
d="M297 710h-59l-68 -322h54q141 0 199 11h1l-8 -42h-2q-59 13 -194 13h-54l-74 -352h58q152 0 282 30h2l-26 -48h-390l155 728h377l1 -46h-2q-122 28 -252 28zM542 807l-6 -5l-133 97l-182 -97l-6 5l195 155h6z" />
    <glyph glyph-name="Edieresis" unicode="&#xcb;" horiz-adv-x="496" 
d="M297 710h-59l-68 -322h54q141 0 199 11h1l-8 -42h-2q-59 13 -194 13h-54l-74 -352h58q152 0 282 30h2l-26 -48h-390l155 728h377l1 -46h-2q-122 28 -252 28zM293 820l-43 54l56 44l42 -55zM477 820l-42 54l56 44l42 -55z" />
    <glyph glyph-name="Igrave" unicode="&#xcc;" horiz-adv-x="217" 
d="M18 0l154 728h69l-154 -728h-69zM235 802l-132 160h98l42 -155z" />
    <glyph glyph-name="Iacute" unicode="&#xcd;" horiz-adv-x="217" 
d="M18 0l154 728h69l-154 -728h-69zM210 802l-6 5l110 155h98z" />
    <glyph glyph-name="Icircumflex" unicode="&#xce;" horiz-adv-x="217" 
d="M18 0l154 728h69l-154 -728h-69zM387 807l-6 -5l-133 97l-182 -97l-6 5l195 155h6z" />
    <glyph glyph-name="Idieresis" unicode="&#xcf;" horiz-adv-x="217" 
d="M18 0l154 728h69l-154 -728h-69zM138 820l-43 54l56 44l42 -55zM322 820l-42 54l56 44l42 -55z" />
    <glyph glyph-name="Eth" unicode="&#xd0;" horiz-adv-x="698" 
d="M686 462q3 -199 -121 -332t-313 -130h-232l79 371h-58l2 14h59l73 343h222q131 0 210 -72t79 -194zM612 460q0 115 -61 183q-61 69 -170 69h-141l-70 -327h187l-3 -14h-187l-73 -346q40 -9 164 -9q103 -2 185.5 60t126.5 164t42 220z" />
    <glyph glyph-name="Ntilde" unicode="&#xd1;" horiz-adv-x="601" 
d="M591 728h47q-40 -121 -82 -318l-90 -422h-7l-280 652l-68 -322q-43 -206 -54 -318h-47q34 104 81 318l75 353l-23 54l1 3h72l258 -608l62 290q46 211 55 318zM249 814l-9 2q34 97 102 97q36 0 97 -30q62 -27 85 -27q41 0 70 57l9 -2q-34 -97 -102 -97q-31 0 -96 29
q-57 27 -86 27q-41 0 -70 -56z" />
    <glyph glyph-name="Ograve" unicode="&#xd2;" horiz-adv-x="772" 
d="M58 300q-2 116 50 218t144.5 163t200.5 59q134 0 219 -86t85 -226q2 -114 -50 -216t-145 -164t-201 -60q-134 0 -218.5 86t-84.5 226zM683 438q0 128 -64 207t-169 79q-89 2 -164 -62t-115.5 -164.5t-38.5 -207.5q0 -129 64 -207.5t169 -78.5q89 -2 164 62t115.5 164.5
t38.5 207.5zM483 802l-132 160h98l42 -155z" />
    <glyph glyph-name="Oacute" unicode="&#xd3;" horiz-adv-x="772" 
d="M58 300q-2 116 50 218t144.5 163t200.5 59q134 0 219 -86t85 -226q2 -114 -50 -216t-145 -164t-201 -60q-134 0 -218.5 86t-84.5 226zM683 438q0 128 -64 207t-169 79q-89 2 -164 -62t-115.5 -164.5t-38.5 -207.5q0 -129 64 -207.5t169 -78.5q89 -2 164 62t115.5 164.5
t38.5 207.5zM457 802l-6 5l110 155h98z" />
    <glyph glyph-name="Ocircumflex" unicode="&#xd4;" horiz-adv-x="772" 
d="M58 300q-2 116 50 218t144.5 163t200.5 59q134 0 219 -86t85 -226q2 -114 -50 -216t-145 -164t-201 -60q-134 0 -218.5 86t-84.5 226zM683 438q0 128 -64 207t-169 79q-89 2 -164 -62t-115.5 -164.5t-38.5 -207.5q0 -129 64 -207.5t169 -78.5q89 -2 164 62t115.5 164.5
t38.5 207.5zM634 807l-6 -5l-133 97l-182 -97l-6 5l195 155h6z" />
    <glyph glyph-name="Otilde" unicode="&#xd5;" horiz-adv-x="772" 
d="M58 300q-2 116 50 218t144.5 163t200.5 59q134 0 219 -86t85 -226q2 -114 -50 -216t-145 -164t-201 -60q-134 0 -218.5 86t-84.5 226zM683 438q0 128 -64 207t-169 79q-89 2 -164 -62t-115.5 -164.5t-38.5 -207.5q0 -129 64 -207.5t169 -78.5q89 -2 164 62t115.5 164.5
t38.5 207.5zM311 814l-9 2q34 97 102 97q36 0 97 -30q62 -27 85 -27q41 0 70 57l9 -2q-34 -97 -102 -97q-31 0 -96 29q-57 27 -86 27q-41 0 -70 -56z" />
    <glyph glyph-name="Odieresis" unicode="&#xd6;" horiz-adv-x="772" 
d="M58 300q-2 116 50 218t144.5 163t200.5 59q134 0 219 -86t85 -226q2 -114 -50 -216t-145 -164t-201 -60q-134 0 -218.5 86t-84.5 226zM683 438q0 128 -64 207t-169 79q-89 2 -164 -62t-115.5 -164.5t-38.5 -207.5q0 -129 64 -207.5t169 -78.5q89 -2 164 62t115.5 164.5
t38.5 207.5zM386 820l-43 54l56 44l42 -55zM570 820l-42 54l56 44l42 -55z" />
    <glyph glyph-name="multiply" unicode="&#xd7;" horiz-adv-x="508" 
d="M456 533l-170 -170l169 -169l-15 -15l-169 169l-169 -169l-15 15l169 169l-170 170l15 15l170 -170l170 170z" />
    <glyph glyph-name="Oslash" unicode="&#xd8;" horiz-adv-x="772" 
d="M777 768l-102 -116q82 -87 82 -224q2 -114 -50 -216t-145 -164t-201 -60q-126 0 -207 75l-101 -114l-16 11l103 116q-82 85 -82 224q-2 116 50 218t144.5 163t200.5 59q124 0 208 -75l100 114zM174 115l456 516q-64 93 -180 93q-89 2 -164 -62t-115.5 -164.5
t-38.5 -207.5q0 -103 42 -175zM641 614l-457 -516q63 -94 181 -94q89 -2 164 62t115.5 164.5t38.5 207.5q0 102 -42 176z" />
    <glyph glyph-name="Ugrave" unicode="&#xd9;" horiz-adv-x="609" 
d="M57 180q0 36 9 76l100 472h69l-100 -469q-9 -42 -9 -79q0 -79 41.5 -122t118.5 -43q176 0 226 225l36 170q39 184 55 318h46q-37 -116 -81 -318l-35 -165q-28 -129 -94.5 -193t-178.5 -64q-97 0 -150 50.5t-53 141.5zM438 802l-132 160h98l42 -155z" />
    <glyph glyph-name="Uacute" unicode="&#xda;" horiz-adv-x="609" 
d="M57 180q0 36 9 76l100 472h69l-100 -469q-9 -42 -9 -79q0 -79 41.5 -122t118.5 -43q176 0 226 225l36 170q39 184 55 318h46q-37 -116 -81 -318l-35 -165q-28 -129 -94.5 -193t-178.5 -64q-97 0 -150 50.5t-53 141.5zM413 802l-6 5l110 155h98z" />
    <glyph glyph-name="Ucircumflex" unicode="&#xdb;" horiz-adv-x="609" 
d="M57 180q0 36 9 76l100 472h69l-100 -469q-9 -42 -9 -79q0 -79 41.5 -122t118.5 -43q176 0 226 225l36 170q39 184 55 318h46q-37 -116 -81 -318l-35 -165q-28 -129 -94.5 -193t-178.5 -64q-97 0 -150 50.5t-53 141.5zM590 807l-6 -5l-133 97l-182 -97l-6 5l195 155h6z
" />
    <glyph glyph-name="Udieresis" unicode="&#xdc;" horiz-adv-x="609" 
d="M57 180q0 36 9 76l100 472h69l-100 -469q-9 -42 -9 -79q0 -79 41.5 -122t118.5 -43q176 0 226 225l36 170q39 184 55 318h46q-37 -116 -81 -318l-35 -165q-28 -129 -94.5 -193t-178.5 -64q-97 0 -150 50.5t-53 141.5zM341 820l-43 54l56 44l42 -55zM525 820l-42 54l56 44
l42 -55z" />
    <glyph glyph-name="Yacute" unicode="&#xdd;" horiz-adv-x="530" 
d="M390 431l-78 -104l-70 -327h-69l71 331l-130 397h73l119 -381l70 93q131 173 188 288h50q-64 -82 -224 -297zM376 802l-6 5l110 155h98z" />
    <glyph glyph-name="Thorn" unicode="&#xde;" horiz-adv-x="519" 
d="M515 429q0 -110 -78.5 -177.5t-208.5 -67.5q-46 0 -99 9l-42 -193h-69l154 728h69l-26 -122h49q251 0 251 -177zM441 423q0 86 -44 126.5t-147 40.5h-37l-81 -380q53 -10 90 -10q103 0 161 63t58 160z" />
    <glyph glyph-name="germandbls" unicode="&#xdf;" horiz-adv-x="540" 
d="M-167 -228l-1 12q62 11 105.5 60.5t59.5 126.5l136 641q42 204 204 204q75 0 126.5 -39t51.5 -99q0 -40 -18 -68q-17 -27 -40.5 -46.5t-67.5 -47.5q-52 -33 -72 -53.5t-20 -47.5q0 -38 61 -86l34 -25q53 -41 76.5 -74t23.5 -76q0 -72 -54.5 -120t-135.5 -48
q-97 0 -165 62l19 38q54 -86 147 -86q62 0 101 36t39 87q0 36 -21 63.5t-68 64.5l-34 25q-38 30 -54.5 52.5t-16.5 52.5q0 34 20.5 60t73.5 69q45 36 61 52q56 52 56 123q0 52 -33 84t-88 32q-53 0 -86 -39.5t-51 -122.5l-141 -666q-18 -84 -78 -136.5t-150 -64.5z" />
    <glyph glyph-name="agrave" unicode="&#xe0;" horiz-adv-x="545" 
d="M426 51q0 -17 9 -24.5t32 -7.5q1 0 19 2l-2 -6q-42 -20 -69 -20q-51 0 -51 56q0 19 4 35l30 140h-9q-48 -116 -111.5 -177t-136.5 -61q-61 0 -93.5 41t-32.5 115q0 84 41 177t113 155q74 62 161 62q85 0 135 -65l58 62h4l-94 -440q-7 -29 -7 -44zM440 427q-36 95 -117 95
q-64 0 -120 -62q-55 -62 -86 -150q-31 -87 -31 -159q0 -58 21.5 -94t61.5 -36q71 -3 151.5 116.5t119.5 289.5zM346 606l-121 170h86l43 -165z" />
    <glyph glyph-name="aacute" unicode="&#xe1;" horiz-adv-x="545" 
d="M426 51q0 -17 9 -24.5t32 -7.5q1 0 19 2l-2 -6q-42 -20 -69 -20q-51 0 -51 56q0 19 4 35l30 140h-9q-48 -116 -111.5 -177t-136.5 -61q-61 0 -93.5 41t-32.5 115q0 84 41 177t113 155q74 62 161 62q85 0 135 -65l58 62h4l-94 -440q-7 -29 -7 -44zM440 427q-36 95 -117 95
q-64 0 -120 -62q-55 -62 -86 -150q-31 -87 -31 -159q0 -58 21.5 -94t61.5 -36q71 -3 151.5 116.5t119.5 289.5zM320 606l-6 5l115 165h86z" />
    <glyph glyph-name="acircumflex" unicode="&#xe2;" horiz-adv-x="545" 
d="M426 51q0 -17 9 -24.5t32 -7.5q1 0 19 2l-2 -6q-42 -20 -69 -20q-51 0 -51 56q0 19 4 35l30 140h-9q-48 -116 -111.5 -177t-136.5 -61q-61 0 -93.5 41t-32.5 115q0 84 41 177t113 155q74 62 161 62q85 0 135 -65l58 62h4l-94 -440q-7 -29 -7 -44zM440 427q-36 95 -117 95
q-64 0 -120 -62q-55 -62 -86 -150q-31 -87 -31 -159q0 -58 21.5 -94t61.5 -36q71 -3 151.5 116.5t119.5 289.5zM479 611l-6 -5l-114 105l-166 -105l-5 5l178 165h6z" />
    <glyph glyph-name="atilde" unicode="&#xe3;" horiz-adv-x="545" 
d="M426 51q0 -17 9 -24.5t32 -7.5q1 0 19 2l-2 -6q-42 -20 -69 -20q-51 0 -51 56q0 19 4 35l30 140h-9q-48 -116 -111.5 -177t-136.5 -61q-61 0 -93.5 41t-32.5 115q0 84 41 177t113 155q74 62 161 62q85 0 135 -65l58 62h4l-94 -440q-7 -29 -7 -44zM440 427q-36 95 -117 95
q-64 0 -120 -62q-55 -62 -86 -150q-31 -87 -31 -159q0 -58 21.5 -94t61.5 -36q71 -3 151.5 116.5t119.5 289.5zM184 618l-9 2q35 97 102 97q30 0 88 -29q50 -27 76 -27q41 0 70 56l9 -2q-34 -97 -102 -97q-32 0 -87 30q-52 27 -77 27q-42 0 -70 -57z" />
    <glyph glyph-name="adieresis" unicode="&#xe4;" horiz-adv-x="545" 
d="M426 51q0 -17 9 -24.5t32 -7.5q1 0 19 2l-2 -6q-42 -20 -69 -20q-51 0 -51 56q0 19 4 35l30 140h-9q-48 -116 -111.5 -177t-136.5 -61q-61 0 -93.5 41t-32.5 115q0 84 41 177t113 155q74 62 161 62q85 0 135 -65l58 62h4l-94 -440q-7 -29 -7 -44zM440 427q-36 95 -117 95
q-64 0 -120 -62q-55 -62 -86 -150q-31 -87 -31 -159q0 -58 21.5 -94t61.5 -36q71 -3 151.5 116.5t119.5 289.5zM243 624l-43 54l56 44l42 -55zM420 624l-42 54l56 44l42 -55z" />
    <glyph glyph-name="aring" unicode="&#xe5;" horiz-adv-x="545" 
d="M426 51q0 -17 9 -24.5t32 -7.5q1 0 19 2l-2 -6q-42 -20 -69 -20q-51 0 -51 56q0 19 4 35l30 140h-9q-48 -116 -111.5 -177t-136.5 -61q-61 0 -93.5 41t-32.5 115q0 84 41 177t113 155q74 62 161 62q85 0 135 -65l58 62h4l-94 -440q-7 -29 -7 -44zM440 427q-36 95 -117 95
q-64 0 -120 -62q-55 -62 -86 -150q-31 -87 -31 -159q0 -58 21.5 -94t61.5 -36q71 -3 151.5 116.5t119.5 289.5zM253 703q0 41 29.5 68.5t71.5 27.5t71.5 -27.5t29.5 -68.5q0 -42 -29.5 -69.5t-71.5 -27.5t-71.5 27.5t-29.5 69.5zM419 703q0 39 -17.5 61.5t-47.5 22.5
t-47.5 -22.5t-17.5 -61.5t17 -62t48 -23t48 23t17 62z" />
    <glyph glyph-name="ae" unicode="&#xe6;" horiz-adv-x="798" 
d="M437 228q-3 -21 -3 -42q0 -76 31 -120.5t83 -44.5q43 0 91.5 26.5t88.5 74.5l12 -7q-103 -127 -222 -127q-64 0 -105 42.5t-48 121.5h-11q-91 -164 -213 -164q-61 0 -93.5 41t-32.5 115q0 84 41 177t113 155q74 62 161 62q98 0 147 -84q84 84 196 84q61 0 96.5 -25
t35.5 -68q0 -75 -106 -129q-111 -55 -262 -88zM439 243q125 30 214 82q90 53 90 123q0 33 -20.5 54.5t-56.5 21.5q-80 3 -146.5 -85t-80.5 -196zM366 216q10 101 68 187l6 24q-36 95 -117 95q-64 0 -120 -62q-55 -62 -86 -150q-31 -87 -31 -159q0 -58 21.5 -94t61.5 -36
q48 0 100 52t97 143z" />
    <glyph glyph-name="ccedilla" unicode="&#xe7;" horiz-adv-x="467" 
d="M93 189q0 -78 36.5 -123t99.5 -45q46 0 97 26.5t89 72.5l10 -7q-99 -119 -213 -125l-29 -44q39 -5 62 -25.5t23 -48.5q0 -38 -30.5 -62.5t-75.5 -24.5q-44 0 -84 21l5 9q24 -15 65 -15q34 0 57 16t23 40q0 19 -19.5 33t-50.5 15l-24 1l57 85q-77 4 -123 57t-46 140
q-1 85 40.5 168t112.5 135t148 50q121 0 158 -99l-39 -30q-18 59 -45 87t-74 28q-60 2 -115 -51t-86 -131.5t-29 -152.5z" />
    <glyph glyph-name="egrave" unicode="&#xe8;" horiz-adv-x="456" 
d="M94 228q-3 -21 -3 -42q0 -76 31.5 -120.5t83.5 -44.5q43 0 91 26.5t89 74.5l11 -7q-101 -127 -221 -127q-70 0 -112 50t-42 140q-1 88 39 172t113 137t156 51q61 0 97 -25t36 -68q0 -75 -106 -129q-111 -55 -263 -88zM96 243q125 30 214 82q90 53 90 123q0 33 -20.5 54.5
t-56.5 21.5q-80 3 -146.5 -85t-80.5 -196zM347 606l-121 170h86l43 -165z" />
    <glyph glyph-name="eacute" unicode="&#xe9;" horiz-adv-x="456" 
d="M94 228q-3 -21 -3 -42q0 -76 31.5 -120.5t83.5 -44.5q43 0 91 26.5t89 74.5l11 -7q-101 -127 -221 -127q-70 0 -112 50t-42 140q-1 88 39 172t113 137t156 51q61 0 97 -25t36 -68q0 -75 -106 -129q-111 -55 -263 -88zM96 243q125 30 214 82q90 53 90 123q0 33 -20.5 54.5
t-56.5 21.5q-80 3 -146.5 -85t-80.5 -196zM321 606l-6 5l115 165h86z" />
    <glyph glyph-name="ecircumflex" unicode="&#xea;" horiz-adv-x="456" 
d="M94 228q-3 -21 -3 -42q0 -76 31.5 -120.5t83.5 -44.5q43 0 91 26.5t89 74.5l11 -7q-101 -127 -221 -127q-70 0 -112 50t-42 140q-1 88 39 172t113 137t156 51q61 0 97 -25t36 -68q0 -75 -106 -129q-111 -55 -263 -88zM96 243q125 30 214 82q90 53 90 123q0 33 -20.5 54.5
t-56.5 21.5q-80 3 -146.5 -85t-80.5 -196zM480 611l-6 -5l-114 105l-166 -105l-5 5l178 165h6z" />
    <glyph glyph-name="edieresis" unicode="&#xeb;" horiz-adv-x="456" 
d="M94 228q-3 -21 -3 -42q0 -76 31.5 -120.5t83.5 -44.5q43 0 91 26.5t89 74.5l11 -7q-101 -127 -221 -127q-70 0 -112 50t-42 140q-1 88 39 172t113 137t156 51q61 0 97 -25t36 -68q0 -75 -106 -129q-111 -55 -263 -88zM96 243q125 30 214 82q90 53 90 123q0 33 -20.5 54.5
t-56.5 21.5q-80 3 -146.5 -85t-80.5 -196zM244 624l-43 54l56 44l42 -55zM421 624l-42 54l56 44l42 -55z" />
    <glyph glyph-name="igrave" unicode="&#xec;" horiz-adv-x="190" 
d="M6 0l110 513l64 22h4l-114 -535h-64zM180 606l-121 170h86l43 -165z" />
    <glyph glyph-name="iacute" unicode="&#xed;" horiz-adv-x="190" 
d="M6 0l110 513l64 22h4l-114 -535h-64zM154 606l-6 5l115 165h86z" />
    <glyph glyph-name="icircumflex" unicode="&#xee;" horiz-adv-x="190" 
d="M6 0l110 513l64 22h4l-114 -535h-64zM313 611l-6 -5l-114 105l-166 -105l-5 5l178 165h6z" />
    <glyph glyph-name="idieresis" unicode="&#xef;" horiz-adv-x="190" 
d="M6 0l110 513l64 22h4l-114 -535h-64zM77 624l-43 54l56 44l42 -55zM254 624l-42 54l56 44l42 -55z" />
    <glyph glyph-name="eth" unicode="&#xf0;" horiz-adv-x="530" 
d="M505 358q1 -94 -35 -179.5t-102 -139t-145 -51.5q-88 0 -142 60t-54 158q-2 117 73 209.5t180 89.5q90 0 153 -76q-13 119 -74 206l-138 -54l-5 16l133 52q-45 58 -98 82l7 16q72 -32 125 -85l110 43l5 -16l-103 -40q110 -119 110 -291zM436 371q0 21 -1 27
q-63 90 -147 90q-83 3 -138 -90.5t-54 -201.5q0 -86 36 -138.5t96 -52.5q58 -3 107.5 54.5t75.5 142.5t25 169z" />
    <glyph glyph-name="ntilde" unicode="&#xf1;" horiz-adv-x="522" 
d="M492 417q0 -35 -9 -75l-73 -342h-64l75 349q7 29 7 64q0 93 -68 93q-81 0 -161 -131t-133 -375h-63l109 513l65 22h4l-56 -259h9q102 262 253 262q105 0 105 -121zM189 618l-9 2q35 97 102 97q30 0 88 -29q50 -27 76 -27q41 0 70 56l9 -2q-34 -97 -102 -97q-32 0 -87 30
q-52 27 -77 27q-42 0 -70 -57z" />
    <glyph glyph-name="ograve" unicode="&#xf2;" horiz-adv-x="529" 
d="M27 205q-2 131 84 233.5t201 99.5q88 0 139 -58.5t51 -158.5q1 -85 -37.5 -163t-105.5 -125t-142 -45q-88 0 -139 58.5t-51 158.5zM431 336q0 85 -31.5 136.5t-88.5 51.5q-54 2 -104.5 -48t-80 -129t-28.5 -157q0 -85 31.5 -136.5t87.5 -51.5q54 -2 104.5 48t80.5 129
t29 157zM340 606l-121 170h86l43 -165z" />
    <glyph glyph-name="oacute" unicode="&#xf3;" horiz-adv-x="529" 
d="M27 205q-2 131 84 233.5t201 99.5q88 0 139 -58.5t51 -158.5q1 -85 -37.5 -163t-105.5 -125t-142 -45q-88 0 -139 58.5t-51 158.5zM431 336q0 85 -31.5 136.5t-88.5 51.5q-54 2 -104.5 -48t-80 -129t-28.5 -157q0 -85 31.5 -136.5t87.5 -51.5q54 -2 104.5 48t80.5 129
t29 157zM314 606l-6 5l115 165h86z" />
    <glyph glyph-name="ocircumflex" unicode="&#xf4;" horiz-adv-x="529" 
d="M27 205q-2 131 84 233.5t201 99.5q88 0 139 -58.5t51 -158.5q1 -85 -37.5 -163t-105.5 -125t-142 -45q-88 0 -139 58.5t-51 158.5zM431 336q0 85 -31.5 136.5t-88.5 51.5q-54 2 -104.5 -48t-80 -129t-28.5 -157q0 -85 31.5 -136.5t87.5 -51.5q54 -2 104.5 48t80.5 129
t29 157zM473 611l-6 -5l-114 105l-166 -105l-5 5l178 165h6z" />
    <glyph glyph-name="otilde" unicode="&#xf5;" horiz-adv-x="529" 
d="M27 205q-2 131 84 233.5t201 99.5q88 0 139 -58.5t51 -158.5q1 -85 -37.5 -163t-105.5 -125t-142 -45q-88 0 -139 58.5t-51 158.5zM431 336q0 85 -31.5 136.5t-88.5 51.5q-54 2 -104.5 -48t-80 -129t-28.5 -157q0 -85 31.5 -136.5t87.5 -51.5q54 -2 104.5 48t80.5 129
t29 157zM178 618l-9 2q35 97 102 97q30 0 88 -29q50 -27 76 -27q41 0 70 56l9 -2q-34 -97 -102 -97q-32 0 -87 30q-52 27 -77 27q-42 0 -70 -57z" />
    <glyph glyph-name="odieresis" unicode="&#xf6;" horiz-adv-x="529" 
d="M27 205q-2 131 84 233.5t201 99.5q88 0 139 -58.5t51 -158.5q1 -85 -37.5 -163t-105.5 -125t-142 -45q-88 0 -139 58.5t-51 158.5zM431 336q0 85 -31.5 136.5t-88.5 51.5q-54 2 -104.5 -48t-80 -129t-28.5 -157q0 -85 31.5 -136.5t87.5 -51.5q54 -2 104.5 48t80.5 129
t29 157zM237 624l-43 54l56 44l42 -55zM414 624l-42 54l56 44l42 -55z" />
    <glyph glyph-name="divide" unicode="&#xf7;" horiz-adv-x="508" 
d="M275 506l-41 41l41 41l41 -41zM71 354v20h408v-20h-408zM275 140l-41 41l41 41l41 -41z" />
    <glyph glyph-name="oslash" unicode="&#xf8;" horiz-adv-x="529" 
d="M527 567l-74 -90q49 -58 49 -156q1 -85 -37.5 -163t-105.5 -125t-142 -45q-79 0 -128 48l-72 -87l-15 10l74 90q-49 58 -49 156q-2 131 84 233.5t201 99.5q78 0 128 -48l72 87zM112 92l298 361q-32 71 -99 71q-54 2 -104.5 -48t-80 -129t-28.5 -157q0 -53 14 -98z
M417 434l-298 -361q32 -71 98 -71q54 -2 104.5 48t80.5 129t29 157q0 51 -14 98z" />
    <glyph glyph-name="ugrave" unicode="&#xf9;" horiz-adv-x="521" 
d="M515 535h4l-114 -535h-63l53 250h-8q-102 -262 -259 -262q-101 0 -101 115q0 36 10 82l71 328l64 22h4l-77 -358q-9 -45 -9 -71q0 -85 65 -85q82 0 163.5 127t132.5 365zM344 606l-121 170h86l43 -165z" />
    <glyph glyph-name="uacute" unicode="&#xfa;" horiz-adv-x="521" 
d="M515 535h4l-114 -535h-63l53 250h-8q-102 -262 -259 -262q-101 0 -101 115q0 36 10 82l71 328l64 22h4l-77 -358q-9 -45 -9 -71q0 -85 65 -85q82 0 163.5 127t132.5 365zM318 606l-6 5l115 165h86z" />
    <glyph glyph-name="ucircumflex" unicode="&#xfb;" horiz-adv-x="521" 
d="M515 535h4l-114 -535h-63l53 250h-8q-102 -262 -259 -262q-101 0 -101 115q0 36 10 82l71 328l64 22h4l-77 -358q-9 -45 -9 -71q0 -85 65 -85q82 0 163.5 127t132.5 365zM477 611l-6 -5l-114 105l-166 -105l-5 5l178 165h6z" />
    <glyph glyph-name="udieresis" unicode="&#xfc;" horiz-adv-x="521" 
d="M515 535h4l-114 -535h-63l53 250h-8q-102 -262 -259 -262q-101 0 -101 115q0 36 10 82l71 328l64 22h4l-77 -358q-9 -45 -9 -71q0 -85 65 -85q82 0 163.5 127t132.5 365zM241 624l-43 54l56 44l42 -55zM418 624l-42 54l56 44l42 -55z" />
    <glyph glyph-name="yacute" unicode="&#xfd;" horiz-adv-x="442" 
d="M441 526h50q-53 -82 -177 -294l-185 -317q-52 -88 -103 -118.5t-122 -30.5l14 48q17 -5 37 -5q41 0 81.5 27t72.5 81l51 88l-99 521h65l83 -438l88 150q111 190 144 288zM302 606l-6 5l115 165h86z" />
    <glyph glyph-name="thorn" unicode="&#xfe;" horiz-adv-x="530" 
d="M514 383q0 -85 -41 -179q-41 -93 -114 -154q-73 -62 -160 -62q-77 0 -124 54l-57 -270h-63l215 1015l65 23h4l-109 -510h10q48 116 111.5 177t136.5 61q61 0 93.5 -41t32.5 -114zM444 375q0 58 -21.5 94.5t-61.5 36.5q-71 3 -152 -116.5t-120 -290.5q36 -95 118 -95
q65 0 119 62q54 60 86 150t32 159z" />
    <glyph glyph-name="ydieresis" unicode="&#xff;" horiz-adv-x="442" 
d="M441 526h50q-53 -82 -177 -294l-185 -317q-52 -88 -103 -118.5t-122 -30.5l14 48q17 -5 37 -5q41 0 81.5 27t72.5 81l51 88l-99 521h65l83 -438l88 150q111 190 144 288zM225 624l-43 54l56 44l42 -55zM402 624l-42 54l56 44l42 -55z" />
    <glyph glyph-name="Amacron" unicode="&#x100;" horiz-adv-x="560" 
d="M428 0l-36 241h-278q-84 -155 -113 -241h-53q25 40 146 246l42 72l245 423h3l114 -741h-70zM124 259h265l-54 364l-181 -312zM245 821l5 26h310l-5 -26h-310z" />
    <glyph glyph-name="amacron" unicode="&#x101;" horiz-adv-x="545" 
d="M426 51q0 -17 9 -24.5t32 -7.5q1 0 19 2l-2 -6q-42 -20 -69 -20q-51 0 -51 56q0 19 4 35l30 140h-9q-48 -116 -111.5 -177t-136.5 -61q-61 0 -93.5 41t-32.5 115q0 84 41 177t113 155q74 62 161 62q85 0 135 -65l58 62h4l-94 -440q-7 -29 -7 -44zM440 427q-36 95 -117 95
q-64 0 -120 -62q-55 -62 -86 -150q-31 -87 -31 -159q0 -58 21.5 -94t61.5 -36q71 -3 151.5 116.5t119.5 289.5zM213 654l5 25h262l-5 -25h-262z" />
    <glyph glyph-name="Abreve" unicode="&#x102;" horiz-adv-x="560" 
d="M428 0l-36 241h-278q-84 -155 -113 -241h-53q25 40 146 246l42 72l245 423h3l114 -741h-70zM124 259h265l-54 364l-181 -312zM271 952l9 3q7 -43 42 -70.5t85 -27.5t96 27.5t73 70.5l9 -3q-29 -62 -78 -100t-110 -38q-60 0 -91.5 37.5t-34.5 100.5z" />
    <glyph glyph-name="abreve" unicode="&#x103;" horiz-adv-x="545" 
d="M426 51q0 -17 9 -24.5t32 -7.5q1 0 19 2l-2 -6q-42 -20 -69 -20q-51 0 -51 56q0 19 4 35l30 140h-9q-48 -116 -111.5 -177t-136.5 -61q-61 0 -93.5 41t-32.5 115q0 84 41 177t113 155q74 62 161 62q85 0 135 -65l58 62h4l-94 -440q-7 -29 -7 -44zM440 427q-36 95 -117 95
q-64 0 -120 -62q-55 -62 -86 -150q-31 -87 -31 -159q0 -58 21.5 -94t61.5 -36q71 -3 151.5 116.5t119.5 289.5zM218 757l9 3q7 -44 38 -71.5t80 -27.5t90.5 26.5t69.5 72.5l9 -3q-66 -139 -178 -139t-118 139z" />
    <glyph glyph-name="Aogonek" unicode="&#x104;" horiz-adv-x="560" 
d="M485 -176l3 -5q-58 -36 -106 -36q-30 0 -47 15.5t-17 41.5q0 40 31.5 74.5t107.5 85.5h-29l-36 241h-278q-84 -155 -113 -241h-53q25 40 146 246l42 72l245 423h3l114 -741h-26q-98 -85 -98 -145q0 -21 13 -33t35 -12q24 0 63 14zM124 259h265l-54 364l-181 -312z" />
    <glyph glyph-name="aogonek" unicode="&#x105;" horiz-adv-x="545" 
d="M426 51q0 -17 9 -24.5t32 -7.5q1 0 19 2l-2 -6q-42 -20 -69 -20h-5q-92 -81 -92 -140q0 -21 13 -33t35 -12q24 0 63 14l3 -5q-58 -36 -106 -36q-30 0 -47 15.5t-17 41.5q0 39 31.5 74t103.5 83q-33 11 -33 54q0 19 4 35l30 140h-9q-48 -116 -111.5 -177t-136.5 -61
q-61 0 -93.5 41t-32.5 115q0 84 41 177t113 155q74 62 161 62q85 0 135 -65l58 62h4l-94 -440q-7 -29 -7 -44zM440 427q-36 95 -117 95q-64 0 -120 -62q-55 -62 -86 -150q-31 -87 -31 -159q0 -58 21.5 -94t61.5 -36q71 -3 151.5 116.5t119.5 289.5z" />
    <glyph glyph-name="Cacute" unicode="&#x106;" horiz-adv-x="663" 
d="M59 299q-1 116 47.5 218.5t137 163.5t194.5 59q86 0 153.5 -37.5t104.5 -102.5l-44 -32q-31 75 -86.5 115.5t-127.5 40.5q-85 2 -157 -59.5t-110.5 -156.5t-36.5 -196q0 -132 66.5 -211t177.5 -79q142 0 242 126l11 -8q-118 -152 -281 -152q-129 0 -210 85t-81 226z
M454 802l-6 5l110 155h98z" />
    <glyph glyph-name="cacute" unicode="&#x107;" horiz-adv-x="467" 
d="M22 185q-1 85 40.5 168t112.5 135t148 50q121 0 158 -99l-39 -30q-18 59 -45 87t-74 28q-60 2 -115 -51t-86 -131.5t-29 -152.5q0 -78 36.5 -123t99.5 -45q46 0 97 26.5t89 72.5l10 -7q-101 -125 -223 -125q-81 0 -130.5 53.5t-49.5 143.5zM323 606l-6 5l115 165h86z" />
    <glyph glyph-name="Ccircumflex" unicode="&#x108;" horiz-adv-x="663" 
d="M59 299q-1 116 47.5 218.5t137 163.5t194.5 59q86 0 153.5 -37.5t104.5 -102.5l-44 -32q-31 75 -86.5 115.5t-127.5 40.5q-85 2 -157 -59.5t-110.5 -156.5t-36.5 -196q0 -132 66.5 -211t177.5 -79q142 0 242 126l11 -8q-118 -152 -281 -152q-129 0 -210 85t-81 226z
M631 807l-6 -5l-133 97l-182 -97l-6 5l195 155h6z" />
    <glyph glyph-name="ccircumflex" unicode="&#x109;" horiz-adv-x="467" 
d="M22 185q-1 85 40.5 168t112.5 135t148 50q121 0 158 -99l-39 -30q-18 59 -45 87t-74 28q-60 2 -115 -51t-86 -131.5t-29 -152.5q0 -78 36.5 -123t99.5 -45q46 0 97 26.5t89 72.5l10 -7q-101 -125 -223 -125q-81 0 -130.5 53.5t-49.5 143.5zM482 611l-6 -5l-114 105
l-166 -105l-5 5l178 165h6z" />
    <glyph glyph-name="Cdotaccent" unicode="&#x10a;" horiz-adv-x="663" 
d="M59 299q-1 116 47.5 218.5t137 163.5t194.5 59q86 0 153.5 -37.5t104.5 -102.5l-44 -32q-31 75 -86.5 115.5t-127.5 40.5q-85 2 -157 -59.5t-110.5 -156.5t-36.5 -196q0 -132 66.5 -211t177.5 -79q142 0 242 126l11 -8q-118 -152 -281 -152q-129 0 -210 85t-81 226z
M475 820l-49 63l65 50l49 -63z" />
    <glyph glyph-name="cdotaccent" unicode="&#x10b;" horiz-adv-x="467" 
d="M22 185q-1 85 40.5 168t112.5 135t148 50q121 0 158 -99l-39 -30q-18 59 -45 87t-74 28q-60 2 -115 -51t-86 -131.5t-29 -152.5q0 -78 36.5 -123t99.5 -45q46 0 97 26.5t89 72.5l10 -7q-101 -125 -223 -125q-81 0 -130.5 53.5t-49.5 143.5zM342 624l-45 59l61 47l45 -59z
" />
    <glyph glyph-name="Ccaron" unicode="&#x10c;" horiz-adv-x="663" 
d="M59 299q-1 116 47.5 218.5t137 163.5t194.5 59q86 0 153.5 -37.5t104.5 -102.5l-44 -32q-31 75 -86.5 115.5t-127.5 40.5q-85 2 -157 -59.5t-110.5 -156.5t-36.5 -196q0 -132 66.5 -211t177.5 -79q142 0 242 126l11 -8q-118 -152 -281 -152q-129 0 -210 85t-81 226z
M658 962l6 -5l-195 -155h-6l-126 155l6 5l133 -97z" />
    <glyph glyph-name="ccaron" unicode="&#x10d;" horiz-adv-x="467" 
d="M22 185q-1 85 40.5 168t112.5 135t148 50q121 0 158 -99l-39 -30q-18 59 -45 87t-74 28q-60 2 -115 -51t-86 -131.5t-29 -152.5q0 -78 36.5 -123t99.5 -45q46 0 97 26.5t89 72.5l10 -7q-101 -125 -223 -125q-81 0 -130.5 53.5t-49.5 143.5zM512 776l5 -5l-178 -165h-6
l-107 165l6 5l114 -104z" />
    <glyph glyph-name="Dcaron" unicode="&#x10e;" horiz-adv-x="696" 
d="M685 462q3 -199 -121 -332t-313 -130h-233l155 728h223q131 0 210 -72t79 -194zM610 460q0 115 -61 183.5t-169 68.5h-141l-146 -687q42 -9 164 -9q103 -2 185.5 60t126 164t41.5 220zM588 962l6 -5l-195 -155h-6l-126 155l6 5l133 -97z" />
    <glyph glyph-name="dcaron" unicode="&#x10f;" horiz-adv-x="551" 
d="M582 810h4l-172 -810h-64l48 226h-9q-48 -116 -111.5 -177t-136.5 -61q-61 0 -93.5 41t-32.5 115q0 84 41 177t113 155q74 62 161 62q77 0 123 -52l64 301zM440 427q-36 95 -117 95q-64 0 -120 -62q-55 -62 -86 -150q-31 -87 -31 -159q0 -58 21.5 -94t61.5 -36
q71 -3 151.5 116.5t119.5 289.5zM640 631l-4 5q60 35 60 79q0 37 -38 63l45 37q39 -23 39 -63q0 -33 -28 -66.5t-74 -54.5z" />
    <glyph glyph-name="Dcroat" unicode="&#x110;" horiz-adv-x="698" 
d="M686 462q3 -199 -121 -332t-313 -130h-232l79 371h-58l2 14h59l73 343h222q131 0 210 -72t79 -194zM612 460q0 115 -61 183q-61 69 -170 69h-141l-70 -327h187l-3 -14h-187l-73 -346q40 -9 164 -9q103 -2 185.5 60t126.5 164t42 220z" />
    <glyph glyph-name="dslash" unicode="&#x111;" horiz-adv-x="529" 
d="M637 676l-3 -14h-79l-141 -662h-64l48 226h-9q-48 -116 -111.5 -177t-136.5 -61q-61 0 -93.5 41t-32.5 115q0 84 41 177t113 155q74 62 161 62q77 0 123 -52l37 176h-125l3 14h125l24 111l65 23h4l-28 -134h79zM440 427q-36 95 -117 95q-64 0 -120 -62q-55 -62 -86 -150
q-31 -87 -31 -159q0 -58 21.5 -94t61.5 -36q71 -3 151.5 116.5t119.5 289.5z" />
    <glyph glyph-name="Emacron" unicode="&#x112;" horiz-adv-x="496" 
d="M297 710h-59l-68 -322h54q141 0 199 11h1l-8 -42h-2q-59 13 -194 13h-54l-74 -352h58q152 0 282 30h2l-26 -48h-390l155 728h377l1 -46h-2q-122 28 -252 28zM228 821l5 26h310l-5 -26h-310z" />
    <glyph glyph-name="emacron" unicode="&#x113;" horiz-adv-x="456" 
d="M94 228q-3 -21 -3 -42q0 -76 31.5 -120.5t83.5 -44.5q43 0 91 26.5t89 74.5l11 -7q-101 -127 -221 -127q-70 0 -112 50t-42 140q-1 88 39 172t113 137t156 51q61 0 97 -25t36 -68q0 -75 -106 -129q-111 -55 -263 -88zM96 243q125 30 214 82q90 53 90 123q0 33 -20.5 54.5
t-56.5 21.5q-80 3 -146.5 -85t-80.5 -196zM214 654l5 25h262l-5 -25h-262z" />
    <glyph glyph-name="Ebreve" unicode="&#x114;" horiz-adv-x="496" 
d="M297 710h-59l-68 -322h54q141 0 199 11h1l-8 -42h-2q-59 13 -194 13h-54l-74 -352h58q152 0 282 30h2l-26 -48h-390l155 728h377l1 -46h-2q-122 28 -252 28zM254 952l9 3q7 -43 42 -70.5t85 -27.5t96 27.5t73 70.5l9 -3q-29 -62 -78 -100t-110 -38q-60 0 -91.5 37.5
t-34.5 100.5z" />
    <glyph glyph-name="ebreve" unicode="&#x115;" horiz-adv-x="456" 
d="M94 228q-3 -21 -3 -42q0 -76 31.5 -120.5t83.5 -44.5q43 0 91 26.5t89 74.5l11 -7q-101 -127 -221 -127q-70 0 -112 50t-42 140q-1 88 39 172t113 137t156 51q61 0 97 -25t36 -68q0 -75 -106 -129q-111 -55 -263 -88zM96 243q125 30 214 82q90 53 90 123q0 33 -20.5 54.5
t-56.5 21.5q-80 3 -146.5 -85t-80.5 -196zM219 757l9 3q7 -44 38 -71.5t80 -27.5t90.5 26.5t69.5 72.5l9 -3q-66 -139 -178 -139t-118 139z" />
    <glyph glyph-name="Edotaccent" unicode="&#x116;" horiz-adv-x="496" 
d="M297 710h-59l-68 -322h54q141 0 199 11h1l-8 -42h-2q-59 13 -194 13h-54l-74 -352h58q152 0 282 30h2l-26 -48h-390l155 728h377l1 -46h-2q-122 28 -252 28zM386 820l-49 63l65 50l49 -63z" />
    <glyph glyph-name="edotaccent" unicode="&#x117;" horiz-adv-x="456" 
d="M94 228q-3 -21 -3 -42q0 -76 31.5 -120.5t83.5 -44.5q43 0 91 26.5t89 74.5l11 -7q-101 -127 -221 -127q-70 0 -112 50t-42 140q-1 88 39 172t113 137t156 51q61 0 97 -25t36 -68q0 -75 -106 -129q-111 -55 -263 -88zM96 243q125 30 214 82q90 53 90 123q0 33 -20.5 54.5
t-56.5 21.5q-80 3 -146.5 -85t-80.5 -196zM341 624l-45 59l61 47l45 -59z" />
    <glyph glyph-name="Eogonek" unicode="&#x118;" horiz-adv-x="496" 
d="M297 710h-59l-68 -322h54q141 0 199 11h1l-8 -42h-2q-59 13 -194 13h-54l-74 -352h58q152 0 282 30h2l-26 -48h-38q-98 -85 -98 -145q0 -21 13.5 -33t34.5 -12q25 0 64 14l3 -5q-59 -36 -107 -36q-29 0 -46.5 15.5t-17.5 41.5q0 40 31.5 74.5t107.5 85.5h-337l155 728
h377l1 -46h-2q-122 28 -252 28z" />
    <glyph glyph-name="eogonek" unicode="&#x119;" horiz-adv-x="456" 
d="M94 228q-3 -21 -3 -42q0 -76 31.5 -120.5t83.5 -44.5q43 0 91 26.5t89 74.5l11 -7q-40 -50 -99 -91q-59 -40 -95.5 -86.5t-36.5 -82.5q0 -21 13.5 -33t34.5 -12q25 0 64 14l3 -5q-59 -36 -107 -36q-29 0 -46 15.5t-17 41.5q0 63 141 162q-42 -14 -76 -14q-70 0 -112 50
t-42 140q-1 88 39 172t113 137t156 51q61 0 97 -25t36 -68q0 -75 -106 -129q-111 -55 -263 -88zM96 243q125 30 214 82q90 53 90 123q0 33 -20.5 54.5t-56.5 21.5q-80 3 -146.5 -85t-80.5 -196z" />
    <glyph glyph-name="Ecaron" unicode="&#x11a;" horiz-adv-x="496" 
d="M297 710h-59l-68 -322h54q141 0 199 11h1l-8 -42h-2q-59 13 -194 13h-54l-74 -352h58q152 0 282 30h2l-26 -48h-390l155 728h377l1 -46h-2q-122 28 -252 28zM569 962l6 -5l-195 -155h-6l-126 155l6 5l133 -97z" />
    <glyph glyph-name="ecaron" unicode="&#x11b;" horiz-adv-x="456" 
d="M94 228q-3 -21 -3 -42q0 -76 31.5 -120.5t83.5 -44.5q43 0 91 26.5t89 74.5l11 -7q-101 -127 -221 -127q-70 0 -112 50t-42 140q-1 88 39 172t113 137t156 51q61 0 97 -25t36 -68q0 -75 -106 -129q-111 -55 -263 -88zM96 243q125 30 214 82q90 53 90 123q0 33 -20.5 54.5
t-56.5 21.5q-80 3 -146.5 -85t-80.5 -196zM510 776l5 -5l-178 -165h-6l-107 165l6 5l114 -104z" />
    <glyph glyph-name="Gcircumflex" unicode="&#x11c;" horiz-adv-x="705" 
d="M442 312l-11 18h248l-58 -272q-108 -70 -243 -70q-144 0 -232.5 82.5t-88.5 222.5q-2 116 49 220t143.5 166.5t201.5 60.5q86 0 152.5 -36.5t102.5 -102.5l-42 -33q-33 75 -88 115.5t-127 40.5q-67 2 -128 -35.5t-102.5 -99.5t-65 -141.5t-22.5 -159.5
q0 -129 66.5 -206.5t182.5 -77.5q93 0 175 55l53 253h-166zM635 804l-6 -5l-133 97l-182 -97l-6 5l195 155h6z" />
    <glyph glyph-name="gcircumflex" unicode="&#x11d;" horiz-adv-x="468" 
d="M524 568l-22 -67q-26 8 -47 8q-43 0 -65 -22q42 -43 42 -112q0 -75 -52 -127q-53 -53 -128 -69l-31 -7q-76 -16 -104.5 -27t-28.5 -30q0 -11 14 -18.5t49 -16.5l111 -27q133 -34 133 -120q0 -65 -74.5 -119t-178.5 -54q-87 0 -143 39t-56 100q0 49 35 99l41 9h4
q-34 -56 -34 -109q0 -57 42 -89.5t117 -32.5q83 0 139.5 39t56.5 89q0 67 -103 92l-114 29q-48 13 -70 27.5t-22 38.5q0 30 37.5 51t116.5 37q-62 10 -99 53t-37 105q0 82 62 142t147 60q71 0 118 -42q63 71 144 71zM369 394q0 58 -28.5 93.5t-76.5 35.5q-63 2 -106.5 -63
t-41.5 -141q0 -57 28.5 -92t76.5 -35q64 0 106 62t42 140zM431 611l-6 -5l-114 105l-166 -105l-5 5l178 165h6z" />
    <glyph glyph-name="Gbreve" unicode="&#x11e;" horiz-adv-x="705" 
d="M442 312l-11 18h248l-58 -272q-108 -70 -243 -70q-144 0 -232.5 82.5t-88.5 222.5q-2 116 49 220t143.5 166.5t201.5 60.5q86 0 152.5 -36.5t102.5 -102.5l-42 -33q-33 75 -88 115.5t-127 40.5q-67 2 -128 -35.5t-102.5 -99.5t-65 -141.5t-22.5 -159.5
q0 -129 66.5 -206.5t182.5 -77.5q93 0 175 55l53 253h-166zM347 949l9 3q7 -43 42 -70.5t85 -27.5t96 27.5t73 70.5l9 -3q-29 -62 -78 -100t-110 -38q-60 0 -91.5 37.5t-34.5 100.5z" />
    <glyph glyph-name="gbreve" unicode="&#x11f;" horiz-adv-x="468" 
d="M524 568l-22 -67q-26 8 -47 8q-43 0 -65 -22q42 -43 42 -112q0 -75 -52 -127q-53 -53 -128 -69l-31 -7q-76 -16 -104.5 -27t-28.5 -30q0 -11 14 -18.5t49 -16.5l111 -27q133 -34 133 -120q0 -65 -74.5 -119t-178.5 -54q-87 0 -143 39t-56 100q0 49 35 99l41 9h4
q-34 -56 -34 -109q0 -57 42 -89.5t117 -32.5q83 0 139.5 39t56.5 89q0 67 -103 92l-114 29q-48 13 -70 27.5t-22 38.5q0 30 37.5 51t116.5 37q-62 10 -99 53t-37 105q0 82 62 142t147 60q71 0 118 -42q63 71 144 71zM369 394q0 58 -28.5 93.5t-76.5 35.5q-63 2 -106.5 -63
t-41.5 -141q0 -57 28.5 -92t76.5 -35q64 0 106 62t42 140zM170 757l9 3q7 -44 38 -71.5t80 -27.5t90.5 26.5t69.5 72.5l9 -3q-66 -139 -178 -139t-118 139z" />
    <glyph glyph-name="Gdotaccent" unicode="&#x120;" horiz-adv-x="705" 
d="M442 312l-11 18h248l-58 -272q-108 -70 -243 -70q-144 0 -232.5 82.5t-88.5 222.5q-2 116 49 220t143.5 166.5t201.5 60.5q86 0 152.5 -36.5t102.5 -102.5l-42 -33q-33 75 -88 115.5t-127 40.5q-67 2 -128 -35.5t-102.5 -99.5t-65 -141.5t-22.5 -159.5
q0 -129 66.5 -206.5t182.5 -77.5q93 0 175 55l53 253h-166zM479 817l-49 63l65 50l49 -63z" />
    <glyph glyph-name="gdotaccent" unicode="&#x121;" horiz-adv-x="468" 
d="M524 568l-22 -67q-26 8 -47 8q-43 0 -65 -22q42 -43 42 -112q0 -75 -52 -127q-53 -53 -128 -69l-31 -7q-76 -16 -104.5 -27t-28.5 -30q0 -11 14 -18.5t49 -16.5l111 -27q133 -34 133 -120q0 -65 -74.5 -119t-178.5 -54q-87 0 -143 39t-56 100q0 49 35 99l41 9h4
q-34 -56 -34 -109q0 -57 42 -89.5t117 -32.5q83 0 139.5 39t56.5 89q0 67 -103 92l-114 29q-48 13 -70 27.5t-22 38.5q0 30 37.5 51t116.5 37q-62 10 -99 53t-37 105q0 82 62 142t147 60q71 0 118 -42q63 71 144 71zM369 394q0 58 -28.5 93.5t-76.5 35.5q-63 2 -106.5 -63
t-41.5 -141q0 -57 28.5 -92t76.5 -35q64 0 106 62t42 140zM292 624l-45 59l61 47l45 -59z" />
    <glyph glyph-name="uni0122" unicode="&#x122;" horiz-adv-x="705" 
d="M442 312l-11 18h248l-58 -272q-108 -70 -243 -70q-144 0 -232.5 82.5t-88.5 222.5q-2 116 49 220t143.5 166.5t201.5 60.5q86 0 152.5 -36.5t102.5 -102.5l-42 -33q-33 75 -88 115.5t-127 40.5q-67 2 -128 -35.5t-102.5 -99.5t-65 -141.5t-22.5 -159.5
q0 -129 66.5 -206.5t182.5 -77.5q93 0 175 55l53 253h-166zM297 -276l-5 7q71 39 71 102q0 42 -43 73l51 43q46 -25 46 -77q0 -42 -33 -82.5t-87 -65.5z" />
    <glyph glyph-name="uni0123" unicode="&#x123;" horiz-adv-x="468" 
d="M524 568l-22 -67q-26 8 -47 8q-43 0 -65 -22q42 -43 42 -112q0 -75 -52 -127q-53 -53 -128 -69l-31 -7q-76 -16 -104.5 -27t-28.5 -30q0 -11 14 -18.5t49 -16.5l111 -27q133 -34 133 -120q0 -65 -74.5 -119t-178.5 -54q-87 0 -143 39t-56 100q0 49 35 99l41 9h4
q-34 -56 -34 -109q0 -57 42 -89.5t117 -32.5q83 0 139.5 39t56.5 89q0 67 -103 92l-114 29q-48 13 -70 27.5t-22 38.5q0 30 37.5 51t116.5 37q-62 10 -99 53t-37 105q0 82 62 142t147 60q71 0 118 -42q63 71 144 71zM369 394q0 58 -28.5 93.5t-76.5 35.5q-63 2 -106.5 -63
t-41.5 -141q0 -57 28.5 -92t76.5 -35q64 0 106 62t42 140zM257 676q0 34 28 67.5t73 53.5l4 -5q-60 -34 -60 -79q0 -34 38 -63l-44 -37q-39 23 -39 63z" />
    <glyph glyph-name="Hcircumflex" unicode="&#x124;" horiz-adv-x="639" 
d="M595 728h69l-154 -728h-69l78 370h-354l-78 -370h-69l154 728h69l-72 -340h354zM599 807l-6 -5l-133 97l-182 -97l-6 5l195 155h6z" />
    <glyph glyph-name="hcircumflex" unicode="&#x125;" horiz-adv-x="522" 
d="M492 417q0 -35 -9 -75l-73 -342h-64l75 349q7 29 7 65q0 92 -68 92q-81 0 -161 -131.5t-133 -374.5h-63l167 787l64 23h4l-113 -534h9q102 262 253 262q105 0 105 -121zM376 807l-6 -5l-133 97l-182 -97l-6 5l195 155h6z" />
    <glyph glyph-name="Hbar" unicode="&#x126;" horiz-adv-x="642" 
d="M691 578l-2 -14h-59l-119 -564h-69l78 370h-353l-78 -370h-69l119 564h-58l3 14h58l32 150h69l-32 -150h353l32 150h69l-32 -150h58zM524 388l37 176h-353l-37 -176h353z" />
    <glyph glyph-name="hbar" unicode="&#x127;" horiz-adv-x="522" 
d="M492 417q0 -35 -9 -75l-73 -342h-64l75 349q7 29 7 65q0 92 -68 92q-81 0 -161 -131.5t-133 -374.5h-63l140 662h-60l3 14h60l24 111l64 23h4l-28 -134h144l-3 -14h-144l-82 -386h9q102 262 253 262q105 0 105 -121z" />
    <glyph glyph-name="Itilde" unicode="&#x128;" horiz-adv-x="217" 
d="M18 0l154 728h69l-154 -728h-69zM63 814l-9 2q34 97 102 97q36 0 97 -30q62 -27 85 -27q41 0 70 57l9 -2q-34 -97 -102 -97q-31 0 -96 29q-57 27 -86 27q-41 0 -70 -56z" />
    <glyph glyph-name="itilde" unicode="&#x129;" horiz-adv-x="190" 
d="M6 0l110 513l64 22h4l-114 -535h-64zM17 618l-9 2q35 97 102 97q30 0 88 -29q50 -27 76 -27q41 0 70 56l9 -2q-34 -97 -102 -97q-32 0 -87 30q-52 27 -77 27q-42 0 -70 -57z" />
    <glyph glyph-name="Imacron" unicode="&#x12a;" horiz-adv-x="217" 
d="M18 0l154 728h69l-154 -728h-69zM72 821l5 26h310l-5 -26h-310z" />
    <glyph glyph-name="imacron" unicode="&#x12b;" horiz-adv-x="190" 
d="M6 0l110 513l64 22h4l-114 -535h-64zM46 654l5 25h262l-5 -25h-262z" />
    <glyph glyph-name="Ibreve" unicode="&#x12c;" horiz-adv-x="217" 
d="M18 0l154 728h69l-154 -728h-69zM99 952l9 3q7 -43 42 -70.5t85 -27.5t96 27.5t73 70.5l9 -3q-29 -62 -78 -100t-110 -38q-60 0 -91.5 37.5t-34.5 100.5z" />
    <glyph glyph-name="ibreve" unicode="&#x12d;" horiz-adv-x="190" 
d="M6 0l110 513l64 22h4l-114 -535h-64zM52 757l9 3q7 -44 38 -71.5t80 -27.5t90.5 26.5t69.5 72.5l9 -3q-66 -139 -178 -139t-118 139z" />
    <glyph glyph-name="Iogonek" unicode="&#x12e;" horiz-adv-x="217" 
d="M-37 -145q0 -21 13.5 -33t34.5 -12q25 0 64 14l3 -5q-59 -36 -107 -36q-29 0 -46 15.5t-17 41.5q0 40 31.5 74.5t106.5 85.5h-28l154 728h69l-154 -728h-26q-98 -85 -98 -145z" />
    <glyph glyph-name="iogonek" unicode="&#x12f;" horiz-adv-x="190" 
d="M237 680l-61 -47l-45 59l60 47zM116 513l64 22h4l-114 -535h-21q-98 -85 -98 -145q0 -21 13.5 -33t34.5 -12q25 0 64 14l3 -5q-59 -36 -107 -36q-29 0 -46 15.5t-17 41.5q0 40 31.5 74.5t106.5 85.5h-28z" />
    <glyph glyph-name="Idot" unicode="&#x130;" horiz-adv-x="217" 
d="M18 0l154 728h69l-154 -728h-69zM230 820l-49 63l65 50l49 -63z" />
    <glyph glyph-name="dotlessi" unicode="&#x131;" horiz-adv-x="190" 
d="M6 0l110 513l64 22h4l-114 -535h-64z" />
    <glyph glyph-name="IJ" unicode="&#x132;" horiz-adv-x="428" 
d="M18 0l154 728h69l-154 -728h-69zM71 -150l-7 12q69 40 108 87q39 45 62 108q20 55 44 163l108 508h69l-106 -500q-25 -122 -60 -189q-33 -67 -82 -107q-47 -40 -136 -82z" />
    <glyph glyph-name="ij" unicode="&#x133;" horiz-adv-x="368" 
d="M176 633l-45 59l60 47l46 -59zM6 0l110 513l64 22h4l-114 -535h-64zM355 633l-46 59l61 47l46 -59zM15 -228l-1 12q62 11 105.5 60.5t59.5 126.5l115 542l65 22h4l-120 -562q-18 -84 -78 -136.5t-150 -64.5z" />
    <glyph glyph-name="Jcircumflex" unicode="&#x134;" horiz-adv-x="220" 
d="M-137 -150l-7 12q68 40 109 87q38 45 61 108q20 55 44 163l108 508h69l-106 -500q-25 -122 -60 -189q-32 -66 -81 -107q-49 -40 -137 -82zM390 807l-6 -5l-133 97l-182 -97l-6 5l195 155h6z" />
    <glyph glyph-name="jcircumflex" unicode="&#x135;" horiz-adv-x="193" 
d="M-160 -228l-1 12q62 11 105.5 60.5t59.5 126.5l115 542l65 22h4l-120 -562q-18 -84 -78 -136.5t-150 -64.5zM316 611l-6 -5l-114 105l-166 -105l-5 5l178 165h6z" />
    <glyph glyph-name="uni0136" unicode="&#x136;" horiz-adv-x="573" 
d="M173 728h68l-154 -728h-69zM436 543l-61 -50l-110 -93l254 -331l-18 -84h-5l-295 388l162 136q158 132 232 219h65v-2q-108 -84 -224 -183zM155 -274l-5 7q71 39 71 102q0 42 -43 73l51 43q46 -25 46 -77q0 -42 -33 -82.5t-87 -65.5z" />
    <glyph glyph-name="uni0137" unicode="&#x137;" horiz-adv-x="459" 
d="M234 810h4l-172 -810h-63l167 787zM263 355l-46 -36l188 -254l-16 -80h-5l-227 310l96 76q117 91 188 155h60v-2q-103 -65 -238 -169zM88 -274l-5 7q71 39 71 102q0 42 -43 73l51 43q46 -25 46 -77q0 -42 -33 -82.5t-87 -65.5z" />
    <glyph glyph-name="kgreenlandic" unicode="&#x138;" horiz-adv-x="459" 
d="M177 535h4l-115 -535h-63l109 513zM263 355l-46 -37l188 -253l-17 -80h-4l-227 310l96 76q117 91 188 155h60v-2q-103 -65 -238 -169z" />
    <glyph glyph-name="Lacute" unicode="&#x139;" horiz-adv-x="407" 
d="M351 50h2l-27 -50h-308l155 728h69l-152 -710h22q109 0 239 32zM213 802l-6 5l110 155h98z" />
    <glyph glyph-name="lacute" unicode="&#x13a;" horiz-adv-x="189" 
d="M6 0l168 787l64 23h4l-172 -810h-64zM196 802l-6 5l110 155h98z" />
    <glyph glyph-name="uni013B" unicode="&#x13b;" horiz-adv-x="407" 
d="M351 50h2l-27 -50h-308l155 728h69l-152 -710h22q109 0 239 32zM94 -274l-5 7q71 39 71 102q0 42 -43 73l51 43q46 -25 46 -77q0 -42 -33 -82.5t-87 -65.5z" />
    <glyph glyph-name="uni013C" unicode="&#x13c;" horiz-adv-x="189" 
d="M6 0l168 787l64 23h4l-172 -810h-64zM-51 -274l-5 7q71 39 71 102q0 42 -43 73l51 43q46 -25 46 -77q0 -42 -33 -82.5t-87 -65.5z" />
    <glyph glyph-name="Lcaron" unicode="&#x13d;" horiz-adv-x="428" 
d="M351 50h2l-27 -50h-308l155 728h69l-152 -710h22q109 0 239 32zM376 551l-4 5q60 35 60 79q0 37 -38 63l45 37q39 -23 39 -63q0 -33 -28 -66.5t-74 -54.5z" />
    <glyph glyph-name="lcaron" unicode="&#x13e;" horiz-adv-x="207" 
d="M6 0l168 787l64 23h4l-172 -810h-64zM246 631l-4 5q60 35 60 79q0 37 -38 63l45 37q39 -23 39 -63q0 -33 -28 -66.5t-74 -54.5z" />
    <glyph glyph-name="Ldot" unicode="&#x13f;" horiz-adv-x="424" 
d="M351 50h2l-27 -50h-308l155 728h69l-152 -710h22q109 0 239 32zM356 342l-49 63l64 50l50 -63z" />
    <glyph glyph-name="ldot" unicode="&#x140;" horiz-adv-x="238" 
d="M6 0l168 787l64 23h4l-172 -810h-64zM234 335l-49 63l64 50l50 -63z" />
    <glyph glyph-name="Lslash" unicode="&#x141;" horiz-adv-x="416" 
d="M357 50h2l-27 -50h-307l66 312l-54 -30l-7 12l65 36l85 398h69l-76 -356l187 102l7 -12l-198 -108l-72 -336h21q109 0 239 32z" />
    <glyph glyph-name="lslash" unicode="&#x142;" horiz-adv-x="219" 
d="M216 427l7 -12l-39 -20l-84 -395h-64l76 357l-89 -46l-7 12l100 52l88 412l64 23h4l-84 -398z" />
    <glyph glyph-name="Nacute" unicode="&#x143;" horiz-adv-x="601" 
d="M591 728h47q-40 -121 -82 -318l-90 -422h-7l-280 652l-68 -322q-43 -206 -54 -318h-47q34 104 81 318l75 353l-23 54l1 3h72l258 -608l62 290q46 211 55 318zM395 802l-6 5l110 155h98z" />
    <glyph glyph-name="nacute" unicode="&#x144;" horiz-adv-x="522" 
d="M492 417q0 -35 -9 -75l-73 -342h-64l75 349q7 29 7 64q0 93 -68 93q-81 0 -161 -131t-133 -375h-63l109 513l65 22h4l-56 -259h9q102 262 253 262q105 0 105 -121zM325 606l-6 5l115 165h86z" />
    <glyph glyph-name="uni0145" unicode="&#x145;" horiz-adv-x="601" 
d="M591 728h47q-40 -121 -82 -318l-90 -422h-7l-280 652l-68 -322q-43 -206 -54 -318h-47q34 104 81 318l75 353l-23 54l1 3h72l258 -608l62 290q46 211 55 318zM150 -274l-5 7q71 39 71 102q0 42 -43 73l51 43q46 -25 46 -77q0 -42 -33 -82.5t-87 -65.5z" />
    <glyph glyph-name="uni0146" unicode="&#x146;" horiz-adv-x="522" 
d="M492 417q0 -35 -9 -75l-73 -342h-64l75 349q7 29 7 64q0 93 -68 93q-81 0 -161 -131t-133 -375h-63l109 513l65 22h4l-56 -259h9q102 262 253 262q105 0 105 -121zM116 -274l-5 7q71 39 71 102q0 42 -43 73l51 43q46 -25 46 -77q0 -42 -33 -82.5t-87 -65.5z" />
    <glyph glyph-name="Ncaron" unicode="&#x147;" horiz-adv-x="601" 
d="M591 728h47q-40 -121 -82 -318l-90 -422h-7l-280 652l-68 -322q-43 -206 -54 -318h-47q34 104 81 318l75 353l-23 54l1 3h72l258 -608l62 290q46 211 55 318zM600 962l6 -5l-195 -155h-6l-126 155l6 5l133 -97z" />
    <glyph glyph-name="ncaron" unicode="&#x148;" horiz-adv-x="522" 
d="M492 417q0 -35 -9 -75l-73 -342h-64l75 349q7 29 7 64q0 93 -68 93q-81 0 -161 -131t-133 -375h-63l109 513l65 22h4l-56 -259h9q102 262 253 262q105 0 105 -121zM514 776l5 -5l-178 -165h-6l-107 165l6 5l114 -104z" />
    <glyph glyph-name="napostrophe" unicode="&#x149;" horiz-adv-x="530" 
d="M7 523l-5 7q75 42 75 100q0 45 -48 81l55 49q50 -27 50 -82q0 -44 -35 -86.5t-92 -68.5zM500 417q0 -35 -9 -75l-73 -342h-64l75 349q7 29 7 64q0 93 -68 93q-81 0 -161 -131t-133 -375h-63l109 513l65 22h4l-56 -259h9q102 262 253 262q105 0 105 -121z" />
    <glyph glyph-name="Eng" unicode="&#x14a;" horiz-adv-x="601" 
d="M591 728h47q-40 -121 -82 -318l-95 -445q-34 -167 -183 -193l-1 12q129 23 164 181l10 43l-272 632l-68 -322q-43 -206 -54 -318h-47q34 104 81 318l75 353l-23 54l1 3h72l259 -609l61 291q46 211 55 318z" />
    <glyph glyph-name="eng" unicode="&#x14b;" horiz-adv-x="522" 
d="M492 417q0 -35 -9 -75l-79 -369q-18 -84 -78 -136.5t-151 -64.5l-1 12q61 11 105 60.5t61 126.5l81 378q7 29 7 64q0 93 -68 93q-81 0 -161 -131t-133 -375h-63l109 513l65 22h4l-56 -259h9q102 262 253 262q105 0 105 -121z" />
    <glyph glyph-name="Omacron" unicode="&#x14c;" horiz-adv-x="772" 
d="M58 300q-2 116 50 218t144.5 163t200.5 59q134 0 219 -86t85 -226q2 -114 -50 -216t-145 -164t-201 -60q-134 0 -218.5 86t-84.5 226zM683 438q0 128 -64 207t-169 79q-89 2 -164 -62t-115.5 -164.5t-38.5 -207.5q0 -129 64 -207.5t169 -78.5q89 -2 164 62t115.5 164.5
t38.5 207.5zM320 821l5 26h310l-5 -26h-310z" />
    <glyph glyph-name="omacron" unicode="&#x14d;" horiz-adv-x="529" 
d="M27 205q-2 131 84 233.5t201 99.5q88 0 139 -58.5t51 -158.5q1 -85 -37.5 -163t-105.5 -125t-142 -45q-88 0 -139 58.5t-51 158.5zM431 336q0 85 -31.5 136.5t-88.5 51.5q-54 2 -104.5 -48t-80 -129t-28.5 -157q0 -85 31.5 -136.5t87.5 -51.5q54 -2 104.5 48t80.5 129
t29 157zM207 654l5 25h262l-5 -25h-262z" />
    <glyph glyph-name="Obreve" unicode="&#x14e;" horiz-adv-x="772" 
d="M58 300q-2 116 50 218t144.5 163t200.5 59q134 0 219 -86t85 -226q2 -114 -50 -216t-145 -164t-201 -60q-134 0 -218.5 86t-84.5 226zM683 438q0 128 -64 207t-169 79q-89 2 -164 -62t-115.5 -164.5t-38.5 -207.5q0 -129 64 -207.5t169 -78.5q89 -2 164 62t115.5 164.5
t38.5 207.5zM346 952l9 3q7 -43 42 -70.5t85 -27.5t96 27.5t73 70.5l9 -3q-29 -62 -78 -100t-110 -38q-60 0 -91.5 37.5t-34.5 100.5z" />
    <glyph glyph-name="obreve" unicode="&#x14f;" horiz-adv-x="529" 
d="M27 205q-2 131 84 233.5t201 99.5q88 0 139 -58.5t51 -158.5q1 -85 -37.5 -163t-105.5 -125t-142 -45q-88 0 -139 58.5t-51 158.5zM431 336q0 85 -31.5 136.5t-88.5 51.5q-54 2 -104.5 -48t-80 -129t-28.5 -157q0 -85 31.5 -136.5t87.5 -51.5q54 -2 104.5 48t80.5 129
t29 157zM212 757l9 3q7 -44 38 -71.5t80 -27.5t90.5 26.5t69.5 72.5l9 -3q-66 -139 -178 -139t-118 139z" />
    <glyph glyph-name="Ohungarumlaut" unicode="&#x150;" horiz-adv-x="772" 
d="M58 300q-2 116 50 218t144.5 163t200.5 59q134 0 219 -86t85 -226q2 -114 -50 -216t-145 -164t-201 -60q-134 0 -218.5 86t-84.5 226zM683 438q0 128 -64 207t-169 79q-89 2 -164 -62t-115.5 -164.5t-38.5 -207.5q0 -129 64 -207.5t169 -78.5q89 -2 164 62t115.5 164.5
t38.5 207.5zM395 802l-6 5l111 155h84zM520 802l-6 5l112 155h84z" />
    <glyph glyph-name="ohungarumlaut" unicode="&#x151;" horiz-adv-x="529" 
d="M27 205q-2 131 84 233.5t201 99.5q88 0 139 -58.5t51 -158.5q1 -85 -37.5 -163t-105.5 -125t-142 -45q-88 0 -139 58.5t-51 158.5zM431 336q0 85 -31.5 136.5t-88.5 51.5q-54 2 -104.5 -48t-80 -129t-28.5 -157q0 -85 31.5 -136.5t87.5 -51.5q54 -2 104.5 48t80.5 129
t29 157zM250 606l-6 5l115 165h76zM376 606l-6 5l115 165h75z" />
    <glyph glyph-name="OE" unicode="&#x152;" horiz-adv-x="974" 
d="M775 710h-58l-68 -322h53q144 0 199 11h1l-8 -42h-2q-56 13 -194 13h-53l-74 -352h58q151 0 282 30h2l-26 -48h-544q-131 0 -210 72t-79 194q-3 199 121 331.5t313 130.5h540l2 -46h-2q-125 28 -253 28zM500 16l146 687q-42 9 -164 9q-103 2 -185.5 -60t-126 -164
t-41.5 -220q0 -115 61 -183.5t169 -68.5h141z" />
    <glyph glyph-name="oe" unicode="&#x153;" horiz-adv-x="850" 
d="M489 228q-3 -21 -3 -42q0 -76 31 -120.5t83 -44.5q43 0 91 26.5t89 74.5l12 -7q-103 -127 -222 -127q-52 0 -89.5 30.5t-52.5 87.5q-84 -118 -211 -118q-88 0 -139 58.5t-51 158.5q-2 131 84 233.5t201 99.5q68 0 112.5 -36.5t60.5 -102.5q43 65 105 102t135 37
q60 0 96 -25t36 -68q0 -75 -106 -129q-111 -55 -262 -88zM431 336q0 85 -31.5 136.5t-88.5 51.5q-54 2 -104.5 -48t-80 -129t-28.5 -157q0 -85 31.5 -136.5t87.5 -51.5q54 -2 104.5 48t80.5 129t29 157zM491 243q125 30 214 82q90 53 90 123q0 33 -20.5 54.5t-56.5 21.5
q-54 2 -104 -40.5t-81.5 -107t-41.5 -133.5z" />
    <glyph glyph-name="Racute" unicode="&#x154;" horiz-adv-x="562" 
d="M339 343l160 -270l-18 -88h-4l-192 320q-8 14 -17 18.5t-31 4.5h-80l-70 -328h-69l155 728h127q119 0 183.5 -44t64.5 -120q0 -168 -209 -221zM476 558q0 154 -187 154h-50l-78 -361q35 -7 91 -7q93 0 158.5 61.5t65.5 152.5zM344 802l-6 5l110 155h98z" />
    <glyph glyph-name="racute" unicode="&#x155;" horiz-adv-x="339" 
d="M384 531l-32 -53q-16 9 -39 9q-25 1 -56.5 -30.5t-65 -90.5t-67 -154.5t-58.5 -211.5h-63l109 513l65 22h4l-56 -259h6q48 128 103.5 194t113.5 66q18 0 36 -5zM220 606l-6 5l115 165h86z" />
    <glyph glyph-name="uni0156" unicode="&#x156;" horiz-adv-x="562" 
d="M339 343l160 -270l-18 -88h-4l-192 320q-8 14 -17 18.5t-31 4.5h-80l-70 -328h-69l155 728h127q119 0 183.5 -44t64.5 -120q0 -168 -209 -221zM476 558q0 154 -187 154h-50l-78 -361q35 -7 91 -7q93 0 158.5 61.5t65.5 152.5zM142 -274l-5 7q71 39 71 102q0 42 -43 73
l51 43q46 -25 46 -77q0 -42 -33 -82.5t-87 -65.5z" />
    <glyph glyph-name="uni0157" unicode="&#x157;" horiz-adv-x="339" 
d="M384 531l-32 -53q-16 9 -39 9q-25 1 -56.5 -30.5t-65 -90.5t-67 -154.5t-58.5 -211.5h-63l109 513l65 22h4l-56 -259h6q48 128 103.5 194t113.5 66q18 0 36 -5zM-54 -274l-5 7q71 39 71 102q0 42 -43 73l51 43q46 -25 46 -77q0 -42 -33 -82.5t-87 -65.5z" />
    <glyph glyph-name="Rcaron" unicode="&#x158;" horiz-adv-x="562" 
d="M339 343l160 -270l-18 -88h-4l-192 320q-8 14 -17 18.5t-31 4.5h-80l-70 -328h-69l155 728h127q119 0 183.5 -44t64.5 -120q0 -168 -209 -221zM476 558q0 154 -187 154h-50l-78 -361q35 -7 91 -7q93 0 158.5 61.5t65.5 152.5zM548 962l6 -5l-195 -155h-6l-126 155l6 5
l133 -97z" />
    <glyph glyph-name="rcaron" unicode="&#x159;" horiz-adv-x="339" 
d="M384 531l-32 -53q-16 9 -39 9q-25 1 -56.5 -30.5t-65 -90.5t-67 -154.5t-58.5 -211.5h-63l109 513l65 22h4l-56 -259h6q48 128 103.5 194t113.5 66q18 0 36 -5zM409 776l5 -5l-178 -165h-6l-107 165l6 5l114 -104z" />
    <glyph glyph-name="Sacute" unicode="&#x15a;" horiz-adv-x="501" 
d="M3 58l22 48q31 -45 86 -73q58 -29 114 -29q74 0 124 48t50 116q0 38 -17 67t-37 46q-36 31 -65 52l-42 30l-50 36q-87 63 -87 151q0 81 63.5 135.5t154.5 54.5q52 0 104.5 -20t86.5 -49l-18 -43q-32 43 -79 69.5t-99 26.5q-67 0 -111 -42t-44 -103q0 -34 16 -60
q15 -24 35 -42t67 -53l42 -31l16 -12q38 -27 64 -51q56 -49 56 -125q0 -93 -69 -155t-168 -62q-52 0 -111 20t-104 50zM320 802l-6 5l110 155h98z" />
    <glyph glyph-name="sacute" unicode="&#x15b;" horiz-adv-x="384" 
d="M-15 52l18 39q25 -40 65.5 -64.5t87.5 -24.5q56 0 92.5 33t36.5 82q-1 22 -6 37t-18.5 29.5t-24 22.5t-39.5 28l-34 22q-55 36 -77.5 63.5t-25.5 78.5q0 63 45 101.5t115 38.5q44 0 87.5 -15t71.5 -39l-16 -37q-27 33 -65.5 55t-79.5 22q-47 0 -77.5 -29t-30.5 -72
q0 -27 12 -46q8 -13 19.5 -24t18.5 -16t36 -25l34 -22q29 -19 54 -40q50 -39 50 -107t-50 -111.5t-125 -43.5q-104 0 -174 64zM222 606l-6 5l115 165h86z" />
    <glyph glyph-name="Scircumflex" unicode="&#x15c;" horiz-adv-x="501" 
d="M3 58l22 48q31 -45 86 -73q58 -29 114 -29q74 0 124 48t50 116q0 38 -17 67t-37 46q-36 31 -65 52l-42 30l-50 36q-87 63 -87 151q0 81 63.5 135.5t154.5 54.5q52 0 104.5 -20t86.5 -49l-18 -43q-32 43 -79 69.5t-99 26.5q-67 0 -111 -42t-44 -103q0 -34 16 -60
q15 -24 35 -42t67 -53l42 -31l16 -12q38 -27 64 -51q56 -49 56 -125q0 -93 -69 -155t-168 -62q-52 0 -111 20t-104 50zM497 807l-6 -5l-133 97l-182 -97l-6 5l195 155h6z" />
    <glyph glyph-name="scircumflex" unicode="&#x15d;" horiz-adv-x="384" 
d="M-15 52l18 39q25 -40 65.5 -64.5t87.5 -24.5q56 0 92.5 33t36.5 82q-1 22 -6 37t-18.5 29.5t-24 22.5t-39.5 28l-34 22q-55 36 -77.5 63.5t-25.5 78.5q0 63 45 101.5t115 38.5q44 0 87.5 -15t71.5 -39l-16 -37q-27 33 -65.5 55t-79.5 22q-47 0 -77.5 -29t-30.5 -72
q0 -27 12 -46q8 -13 19.5 -24t18.5 -16t36 -25l34 -22q29 -19 54 -40q50 -39 50 -107t-50 -111.5t-125 -43.5q-104 0 -174 64zM381 611l-6 -5l-114 105l-166 -105l-5 5l178 165h6z" />
    <glyph glyph-name="Scedilla" unicode="&#x15e;" horiz-adv-x="501" 
d="M510 671l-18 -43q-32 43 -79 69.5t-99 26.5q-67 0 -111 -42t-44 -103q0 -34 16 -60q15 -24 35 -42t67 -53l42 -31l16 -12q38 -27 64 -51q56 -49 56 -125q0 -91 -65.5 -152.5t-161.5 -64.5l-30 -43q41 -6 63.5 -26.5t22.5 -48.5q0 -38 -30.5 -62.5t-75.5 -24.5
q-41 0 -85 21l5 9q26 -15 66 -15q34 0 56.5 16t22.5 40q0 19 -19.5 33t-49.5 15l-24 1l57 85q-52 2 -107 22t-97 48l22 48q31 -45 86 -73q58 -29 114 -29q74 0 124 48t50 116q0 38 -17 67t-37 46q-36 31 -65 52l-42 30l-50 36q-87 63 -87 151q0 81 63.5 135.5t154.5 54.5
q52 0 104.5 -20t86.5 -49z" />
    <glyph glyph-name="scedilla" unicode="&#x15f;" horiz-adv-x="384" 
d="M379 484l-16 -37q-27 33 -65.5 55t-79.5 22q-47 0 -77.5 -29t-30.5 -72q0 -27 12 -46q8 -13 19.5 -24t18.5 -16t36 -25l34 -22q29 -19 54 -40q50 -39 50 -107q0 -66 -48 -110q-48 -43 -119 -45l-29 -44q41 -5 63 -24.5t22 -49.5q0 -36 -31 -61.5t-74 -25.5q-45 0 -85 21
l5 9q24 -15 66 -15q33 0 56 16t23 40q0 19 -19.5 33t-49.5 15l-25 1l57 85q-96 5 -161 64l18 39q25 -40 65.5 -64.5t87.5 -24.5q56 0 92.5 33t36.5 82q-1 22 -6 37t-18.5 29.5t-24 22.5t-39.5 28l-34 22q-55 36 -77.5 63.5t-25.5 78.5q0 63 45 101.5t115 38.5q44 0 87.5 -15
t71.5 -39z" />
    <glyph glyph-name="Scaron" unicode="&#x160;" horiz-adv-x="501" 
d="M3 58l22 48q31 -45 86 -73q58 -29 114 -29q74 0 124 48t50 116q0 38 -17 67t-37 46q-36 31 -65 52l-42 30l-50 36q-87 63 -87 151q0 81 63.5 135.5t154.5 54.5q52 0 104.5 -20t86.5 -49l-18 -43q-32 43 -79 69.5t-99 26.5q-67 0 -111 -42t-44 -103q0 -34 16 -60
q15 -24 35 -42t67 -53l42 -31l16 -12q38 -27 64 -51q56 -49 56 -125q0 -93 -69 -155t-168 -62q-52 0 -111 20t-104 50zM524 962l6 -5l-195 -155h-6l-126 155l6 5l133 -97z" />
    <glyph glyph-name="scaron" unicode="&#x161;" horiz-adv-x="384" 
d="M-15 52l18 39q25 -40 65.5 -64.5t87.5 -24.5q56 0 92.5 33t36.5 82q-1 22 -6 37t-18.5 29.5t-24 22.5t-39.5 28l-34 22q-55 36 -77.5 63.5t-25.5 78.5q0 63 45 101.5t115 38.5q44 0 87.5 -15t71.5 -39l-16 -37q-27 33 -65.5 55t-79.5 22q-47 0 -77.5 -29t-30.5 -72
q0 -27 12 -46q8 -13 19.5 -24t18.5 -16t36 -25l34 -22q29 -19 54 -40q50 -39 50 -107t-50 -111.5t-125 -43.5q-104 0 -174 64zM411 776l5 -5l-178 -165h-6l-107 165l6 5l114 -104z" />
    <glyph glyph-name="uni0162" unicode="&#x162;" horiz-adv-x="513" 
d="M589 728l2 -49h-2q-97 31 -181 31h-24l-150 -710h-69l150 710h-23q-83 0 -194 -31h-2l22 49h471zM259 -130q0 -38 -30.5 -62.5t-75.5 -24.5q-41 0 -85 21l5 9q24 -15 66 -15q33 0 56 16t23 40q0 19 -19.5 33t-49.5 15l-24 1l65 97h20l-37 -55q41 -6 63.5 -26.5
t22.5 -48.5z" />
    <glyph glyph-name="uni0163" unicode="&#x163;" horiz-adv-x="327" 
d="M203 504l-79 -376q-7 -32 -7 -56q0 -51 39 -51q45 0 130 85l11 -10q-82 -93 -155 -106l-30 -46q39 -5 62 -25.5t23 -48.5q0 -38 -30.5 -62.5t-75.5 -24.5q-44 0 -84 21l5 9q24 -15 65 -15q34 0 57 16t23 40q0 19 -19.5 33t-50.5 15l-24 1l57 85q-68 2 -68 80q0 26 6 54
l82 382h-74l3 17l70 5l100 162h4l-35 -162h167l-18 -22h-154z" />
    <glyph glyph-name="Tcaron" unicode="&#x164;" horiz-adv-x="513" 
d="M589 728l2 -49h-2q-97 31 -181 31h-24l-150 -710h-69l150 710h-23q-83 0 -194 -31h-2l22 49h471zM560 962l6 -5l-195 -155h-6l-126 155l6 5l133 -97z" />
    <glyph glyph-name="tcaron" unicode="&#x165;" horiz-adv-x="327" 
d="M203 504l-79 -376q-7 -32 -7 -56q0 -51 39 -51q45 0 130 85l11 -10q-45 -51 -91 -79.5t-82 -28.5q-72 0 -72 80q0 26 6 54l82 382h-74l3 17l70 5l100 162h4l-35 -162h167l-18 -22h-154zM321 573l-4 5q60 35 60 79q0 37 -38 63l45 37q39 -23 39 -63q0 -33 -28 -66.5
t-74 -54.5z" />
    <glyph glyph-name="Tbar" unicode="&#x166;" horiz-adv-x="526" 
d="M415 710h-25l-68 -325h125l-3 -14h-125l-79 -371h-68l79 371h-126l3 14h126l68 325h-24q-81 0 -192 -31h-2l22 49h469l1 -49h-2q-97 31 -179 31z" />
    <glyph glyph-name="tbar" unicode="&#x167;" horiz-adv-x="338" 
d="M364 504h-155l-35 -169h165l-4 -14h-164l-41 -193q-7 -31 -7 -55q0 -52 39 -52q45 0 130 85l11 -10q-45 -51 -91 -79.5t-82 -28.5q-72 0 -72 79q0 24 7 55l42 199h-74l4 14h73l36 169h-74l3 17l71 5l99 162h4l-35 -162h168z" />
    <glyph glyph-name="Utilde" unicode="&#x168;" horiz-adv-x="609" 
d="M57 180q0 36 9 76l100 472h69l-100 -469q-9 -42 -9 -79q0 -79 41.5 -122t118.5 -43q176 0 226 225l36 170q39 184 55 318h46q-37 -116 -81 -318l-35 -165q-28 -129 -94.5 -193t-178.5 -64q-97 0 -150 50.5t-53 141.5zM266 814l-9 2q34 97 102 97q35 0 97 -30
q62 -27 85 -27q41 0 70 57l9 -2q-34 -97 -102 -97q-31 0 -96 29q-57 27 -86 27q-41 0 -70 -56z" />
    <glyph glyph-name="utilde" unicode="&#x169;" horiz-adv-x="521" 
d="M515 535h4l-114 -535h-63l53 250h-8q-102 -262 -259 -262q-101 0 -101 115q0 36 10 82l71 328l64 22h4l-77 -358q-9 -45 -9 -71q0 -85 65 -85q82 0 163.5 127t132.5 365zM182 618l-9 2q35 97 102 97q30 0 88 -29q50 -27 76 -27q41 0 70 56l9 -2q-34 -97 -102 -97
q-32 0 -87 30q-52 27 -77 27q-42 0 -70 -57z" />
    <glyph glyph-name="Umacron" unicode="&#x16a;" horiz-adv-x="609" 
d="M57 180q0 36 9 76l100 472h69l-100 -469q-9 -42 -9 -79q0 -79 41.5 -122t118.5 -43q176 0 226 225l36 170q39 184 55 318h46q-37 -116 -81 -318l-35 -165q-28 -129 -94.5 -193t-178.5 -64q-97 0 -150 50.5t-53 141.5zM275 821l5 26h310l-5 -26h-310z" />
    <glyph glyph-name="umacron" unicode="&#x16b;" horiz-adv-x="521" 
d="M515 535h4l-114 -535h-63l53 250h-8q-102 -262 -259 -262q-101 0 -101 115q0 36 10 82l71 328l64 22h4l-77 -358q-9 -45 -9 -71q0 -85 65 -85q82 0 163.5 127t132.5 365zM211 654l5 25h262l-5 -25h-262z" />
    <glyph glyph-name="Ubreve" unicode="&#x16c;" horiz-adv-x="609" 
d="M57 180q0 36 9 76l100 472h69l-100 -469q-9 -42 -9 -79q0 -79 41.5 -122t118.5 -43q176 0 226 225l36 170q39 184 55 318h46q-37 -116 -81 -318l-35 -165q-28 -129 -94.5 -193t-178.5 -64q-97 0 -150 50.5t-53 141.5zM302 952l9 3q7 -43 42 -70.5t85 -27.5t96 27.5
t73 70.5l9 -3q-29 -62 -78 -100t-110 -38q-60 0 -91.5 37.5t-34.5 100.5z" />
    <glyph glyph-name="ubreve" unicode="&#x16d;" horiz-adv-x="521" 
d="M515 535h4l-114 -535h-63l53 250h-8q-102 -262 -259 -262q-101 0 -101 115q0 36 10 82l71 328l64 22h4l-77 -358q-9 -45 -9 -71q0 -85 65 -85q82 0 163.5 127t132.5 365zM216 757l9 3q7 -44 38 -71.5t80 -27.5t90.5 26.5t69.5 72.5l9 -3q-66 -139 -178 -139t-118 139z
" />
    <glyph glyph-name="Uring" unicode="&#x16e;" horiz-adv-x="609" 
d="M57 180q0 36 9 76l100 472h69l-100 -469q-9 -42 -9 -79q0 -79 41.5 -122t118.5 -43q176 0 226 225l36 170q39 184 55 318h46q-37 -116 -81 -318l-35 -165q-28 -129 -94.5 -193t-178.5 -64q-97 0 -150 50.5t-53 141.5zM345 898q0 42 29.5 69.5t71.5 27.5t71.5 -27.5
t29.5 -69.5q0 -41 -29.5 -68.5t-71.5 -27.5t-71.5 27.5t-29.5 68.5zM511 898q0 39 -17 62t-48 23t-48 -23t-17 -62t17 -61.5t48 -22.5t48 22.5t17 61.5z" />
    <glyph glyph-name="uring" unicode="&#x16f;" horiz-adv-x="521" 
d="M515 535h4l-114 -535h-63l53 250h-8q-102 -262 -259 -262q-101 0 -101 115q0 36 10 82l71 328l64 22h4l-77 -358q-9 -45 -9 -71q0 -85 65 -85q82 0 163.5 127t132.5 365zM251 703q0 41 29.5 68.5t71.5 27.5t71.5 -27.5t29.5 -68.5q0 -42 -29.5 -69.5t-71.5 -27.5
t-71.5 27.5t-29.5 69.5zM417 703q0 39 -17.5 61.5t-47.5 22.5t-47.5 -22.5t-17.5 -61.5t17 -62t48 -23t48 23t17 62z" />
    <glyph glyph-name="Uhungarumlaut" unicode="&#x170;" horiz-adv-x="609" 
d="M57 180q0 36 9 76l100 472h69l-100 -469q-9 -42 -9 -79q0 -79 41.5 -122t118.5 -43q176 0 226 225l36 170q39 184 55 318h46q-37 -116 -81 -318l-35 -165q-28 -129 -94.5 -193t-178.5 -64q-97 0 -150 50.5t-53 141.5zM350 802l-6 5l111 155h84zM475 802l-6 5l112 155h84z
" />
    <glyph glyph-name="uhungarumlaut" unicode="&#x171;" horiz-adv-x="521" 
d="M515 535h4l-114 -535h-63l53 250h-8q-102 -262 -259 -262q-101 0 -101 115q0 36 10 82l71 328l64 22h4l-77 -358q-9 -45 -9 -71q0 -85 65 -85q82 0 163.5 127t132.5 365zM254 606l-6 5l115 165h76zM380 606l-6 5l115 165h75z" />
    <glyph glyph-name="Uogonek" unicode="&#x172;" horiz-adv-x="609" 
d="M603 728h46q-37 -116 -81 -318l-35 -165q-53 -246 -253 -256q-84 -76 -84 -134q0 -21 13 -33t34 -12q25 0 64 14l3 -5q-59 -36 -107 -36q-29 0 -46 15.5t-17 41.5q0 37 28.5 71t91.5 77q-97 0 -150 50.5t-53 141.5q0 36 9 76l100 472h69l-100 -469q-9 -42 -9 -79
q0 -79 41.5 -122t118.5 -43q176 0 226 225l36 170q39 184 55 318z" />
    <glyph glyph-name="uogonek" unicode="&#x173;" horiz-adv-x="521" 
d="M286 -145q0 -21 13.5 -33t34.5 -12q25 0 64 14l3 -5q-59 -36 -107 -36q-29 0 -46.5 15.5t-17.5 41.5q0 40 31.5 74.5t107.5 85.5h-27l53 250h-8q-102 -262 -259 -262q-101 0 -101 115q0 36 10 82l71 328l64 22h4l-77 -358q-9 -45 -9 -71q0 -85 65 -85q82 0 163.5 127
t132.5 365l64 22h4l-114 -535h-21q-98 -85 -98 -145z" />
    <glyph glyph-name="Wcircumflex" unicode="&#x174;" horiz-adv-x="876" 
d="M917 728h48q-107 -196 -171 -319l-222 -422h-3l-62 605l-322 -605h-4l-74 741h69l59 -605l322 605h4l61 -604l153 292q98 183 142 312zM739 807l-6 -5l-133 97l-182 -97l-6 5l195 155h6z" />
    <glyph glyph-name="wcircumflex" unicode="&#x175;" horiz-adv-x="698" 
d="M696 526h50q-59 -95 -172 -299l-134 -239h-6l-52 423l-232 -423h-7l-80 538h64l62 -428l235 428h7l51 -425l75 134q112 202 139 291zM592 611l-6 -5l-114 105l-166 -105l-5 5l178 165h6z" />
    <glyph glyph-name="Ycircumflex" unicode="&#x176;" horiz-adv-x="530" 
d="M390 431l-78 -104l-70 -327h-69l71 331l-130 397h73l119 -381l70 93q131 173 188 288h50q-64 -82 -224 -297zM553 807l-6 -5l-133 97l-182 -97l-6 5l195 155h6z" />
    <glyph glyph-name="ycircumflex" unicode="&#x177;" horiz-adv-x="442" 
d="M441 526h50q-53 -82 -177 -294l-185 -317q-52 -88 -103 -118.5t-122 -30.5l14 48q17 -5 37 -5q41 0 81.5 27t72.5 81l51 88l-99 521h65l83 -438l88 150q111 190 144 288zM461 611l-6 -5l-114 105l-166 -105l-5 5l178 165h6z" />
    <glyph glyph-name="Ydieresis" unicode="&#x178;" horiz-adv-x="530" 
d="M390 431l-78 -104l-70 -327h-69l71 331l-130 397h73l119 -381l70 93q131 173 188 288h50q-64 -82 -224 -297zM304 820l-43 54l56 44l42 -55zM488 820l-42 54l56 44l42 -55z" />
    <glyph glyph-name="Zacute" unicode="&#x179;" horiz-adv-x="488" 
d="M572 728l-1 -4l-525 -706h73q190 0 311 30h1l-26 -48h-453l1 4l526 706h-60q-193 0 -302 -28h-2l21 46h436zM353 802l-6 5l110 155h98z" />
    <glyph glyph-name="zacute" unicode="&#x17a;" horiz-adv-x="392" 
d="M429 526l-1 -4l-387 -507h66q117 0 226 23h3l-18 -38h-361l1 4l387 507h-59q-110 0 -216 -20h-3l15 35h347zM260 606l-6 5l115 165h86z" />
    <glyph glyph-name="Zdotaccent" unicode="&#x17b;" horiz-adv-x="488" 
d="M572 728l-1 -4l-525 -706h73q190 0 311 30h1l-26 -48h-453l1 4l526 706h-60q-193 0 -302 -28h-2l21 46h436zM374 820l-49 63l65 50l49 -63z" />
    <glyph glyph-name="zdotaccent" unicode="&#x17c;" horiz-adv-x="392" 
d="M429 526l-1 -4l-387 -507h66q117 0 226 23h3l-18 -38h-361l1 4l387 507h-59q-110 0 -216 -20h-3l15 35h347zM280 624l-45 59l61 47l45 -59z" />
    <glyph glyph-name="Zcaron" unicode="&#x17d;" horiz-adv-x="488" 
d="M572 728l-1 -4l-525 -706h73q190 0 311 30h1l-26 -48h-453l1 4l526 706h-60q-193 0 -302 -28h-2l21 46h436zM557 962l6 -5l-195 -155h-6l-126 155l6 5l133 -97z" />
    <glyph glyph-name="zcaron" unicode="&#x17e;" horiz-adv-x="392" 
d="M429 526l-1 -4l-387 -507h66q117 0 226 23h3l-18 -38h-361l1 4l387 507h-59q-110 0 -216 -20h-3l15 35h347zM449 776l5 -5l-178 -165h-6l-107 165l6 5l114 -104z" />
    <glyph glyph-name="longs" unicode="&#x17f;" horiz-adv-x="200" 
d="M3 0l134 627q19 92 68.5 139.5t124.5 47.5q72 0 128 -39l-8 -12q-49 24 -100 24q-116 0 -151 -164l-133 -623h-63z" />
    <glyph glyph-name="florin" unicode="&#x192;" horiz-adv-x="410" 
d="M272 564l-27 -190h158l-5 -18h-155l-54 -384q-25 -186 -152 -186q-55 0 -104 35l6 12q40 -23 85 -23q49 0 77.5 41t40.5 129l53 376h-145v18h147l28 198q26 186 152 186q55 0 104 -35l-6 -12q-40 23 -85 23q-49 0 -77.5 -41t-40.5 -129z" />
    <glyph glyph-name="Aringacute" unicode="&#x1fa;" horiz-adv-x="561" 
d="M573 1040l-168 -95l-7 5l77 90h98zM388 715l110 -715h-69l-36 241h-278q-54 -97 -73 -139q-22 -46 -41 -102h-52q41 64 132 222q41 73 55 96l230 398q-37 5 -62 32t-25 63q0 42 29.5 69.5t71.5 27.5q43 0 72 -27.5t29 -69.5q0 -39 -26.5 -66t-66.5 -30zM380 727
q30 0 47.5 22.5t17.5 61.5t-17 62t-48 23t-48 -23t-17 -62t17.5 -61.5t47.5 -22.5zM125 259h265l-55 364l-180 -312z" />
    <glyph glyph-name="aringacute" unicode="&#x1fb;" horiz-adv-x="545" 
d="M564 936l-158 -105l-7 5l79 100h86zM274 703q0 41 29.5 68.5t71.5 27.5q43 0 72 -27.5t29 -68.5q0 -42 -29 -69.5t-72 -27.5q-42 0 -71.5 27.5t-29.5 69.5zM311 703q0 -39 17 -62t47 -23q31 0 48 23t17 62t-17.5 61.5t-47.5 22.5t-47 -22.5t-17 -61.5zM527 535l-94 -440
q-7 -29 -7 -44q0 -17 9 -24.5t32 -7.5q1 0 19 2l-2 -6q-42 -20 -69 -20q-51 0 -51 56q0 19 4 35l30 140h-9q-48 -116 -111.5 -177t-136.5 -61q-61 0 -93.5 41t-32.5 115q0 84 41 177t113 155q74 62 161 62q85 0 135 -65l58 62h4zM440 427q-36 95 -117 95q-64 0 -120 -62
q-55 -62 -86 -150q-31 -87 -31 -159q0 -58 21.5 -94t61.5 -36q71 -3 151.5 116.5t119.5 289.5z" />
    <glyph glyph-name="AEacute" unicode="&#x1fc;" horiz-adv-x="827" 
d="M629 710h-60l-68 -322h54q141 0 199 11h2l-9 -42h-2q-56 13 -193 13h-55l-74 -352h59q150 0 281 30h2l-26 -48h-388l55 262h-243q-109 -147 -169 -262h-56l557 728h386l2 -46h-2q-125 28 -252 28zM176 280h234l90 424l-301 -394zM553 802l-6 5l110 155h98z" />
    <glyph glyph-name="aeacute" unicode="&#x1fd;" horiz-adv-x="798" 
d="M437 228q-3 -21 -3 -42q0 -76 31 -120.5t83 -44.5q43 0 91.5 26.5t88.5 74.5l12 -7q-103 -127 -222 -127q-64 0 -105 42.5t-48 121.5h-11q-91 -164 -213 -164q-61 0 -93.5 41t-32.5 115q0 84 41 177t113 155q74 62 161 62q98 0 147 -84q84 84 196 84q61 0 96.5 -25
t35.5 -68q0 -75 -106 -129q-111 -55 -262 -88zM439 243q125 30 214 82q90 53 90 123q0 33 -20.5 54.5t-56.5 21.5q-80 3 -146.5 -85t-80.5 -196zM366 216q10 101 68 187l6 24q-36 95 -117 95q-64 0 -120 -62q-55 -62 -86 -150q-31 -87 -31 -159q0 -58 21.5 -94t61.5 -36
q48 0 100 52t97 143zM484 606l-6 5l115 165h86z" />
    <glyph glyph-name="Oslashacute" unicode="&#x1fe;" horiz-adv-x="772" 
d="M777 768l-102 -116q82 -87 82 -224q2 -114 -50 -216t-145 -164t-201 -60q-126 0 -207 75l-101 -114l-16 11l103 116q-82 85 -82 224q-2 116 50 218t144.5 163t200.5 59q124 0 208 -75l100 114zM174 115l456 516q-64 93 -180 93q-89 2 -164 -62t-115.5 -164.5
t-38.5 -207.5q0 -103 42 -175zM641 614l-457 -516q63 -94 181 -94q89 -2 164 62t115.5 164.5t38.5 207.5q0 102 -42 176zM466 802l-6 5l110 155h98z" />
    <glyph glyph-name="oslashacute" unicode="&#x1ff;" horiz-adv-x="529" 
d="M527 567l-74 -90q49 -58 49 -156q1 -85 -37.5 -163t-105.5 -125t-142 -45q-79 0 -128 48l-72 -87l-15 10l74 90q-49 58 -49 156q-2 131 84 233.5t201 99.5q78 0 128 -48l72 87zM112 92l298 361q-32 71 -99 71q-54 2 -104.5 -48t-80 -129t-28.5 -157q0 -53 14 -98z
M417 434l-298 -361q32 -71 98 -71q54 -2 104.5 48t80.5 129t29 157q0 51 -14 98zM323 606l-6 5l115 165h86z" />
    <glyph glyph-name="uni0218" unicode="&#x218;" horiz-adv-x="501" 
d="M3 58l22 48q31 -45 86 -73q58 -29 114 -29q74 0 124 48t50 116q0 38 -17 67t-37 46q-36 31 -65 52l-42 30l-50 36q-87 63 -87 151q0 81 63.5 135.5t154.5 54.5q52 0 104.5 -20t86.5 -49l-18 -43q-32 43 -79 69.5t-99 26.5q-67 0 -111 -42t-44 -103q0 -34 16 -60
q15 -24 35 -42t67 -53l42 -31l16 -12q38 -27 64 -51q56 -49 56 -125q0 -93 -69 -155t-168 -62q-52 0 -111 20t-104 50zM136 -274l-5 7q71 39 71 102q0 42 -43 73l51 43q46 -25 46 -77q0 -42 -33 -82.5t-87 -65.5z" />
    <glyph glyph-name="uni0219" unicode="&#x219;" horiz-adv-x="384" 
d="M-15 52l18 39q25 -40 65.5 -64.5t87.5 -24.5q56 0 92.5 33t36.5 82q-1 22 -6 37t-18.5 29.5t-24 22.5t-39.5 28l-34 22q-55 36 -77.5 63.5t-25.5 78.5q0 63 45 101.5t115 38.5q44 0 87.5 -15t71.5 -39l-16 -37q-27 33 -65.5 55t-79.5 22q-47 0 -77.5 -29t-30.5 -72
q0 -27 12 -46q8 -13 19.5 -24t18.5 -16t36 -25l34 -22q29 -19 54 -40q50 -39 50 -107t-50 -111.5t-125 -43.5q-104 0 -174 64zM75 -274l-5 7q71 39 71 102q0 42 -43 73l51 43q46 -25 46 -77q0 -42 -33 -82.5t-87 -65.5z" />
    <glyph glyph-name="uni021A" unicode="&#x21a;" horiz-adv-x="513" 
d="M589 728l2 -49h-2q-97 31 -181 31h-24l-150 -710h-69l150 710h-23q-83 0 -194 -31h-2l22 49h471zM111 -274l-5 7q71 39 71 102q0 42 -43 73l51 43q46 -25 46 -77q0 -42 -33 -82.5t-87 -65.5z" />
    <glyph glyph-name="uni021B" unicode="&#x21b;" horiz-adv-x="327" 
d="M203 504l-79 -376q-7 -32 -7 -56q0 -51 39 -51q45 0 130 85l11 -10q-45 -51 -91 -79.5t-82 -28.5q-72 0 -72 80q0 26 6 54l82 382h-74l3 17l70 5l100 162h4l-35 -162h167l-18 -22h-154zM49 -274l-5 7q71 39 71 102q0 42 -43 73l51 43q46 -25 46 -77q0 -42 -33 -82.5
t-87 -65.5z" />
    <glyph glyph-name="uni0237" unicode="&#x237;" horiz-adv-x="193" 
d="M-160 -228l-1 12q62 11 105.5 60.5t59.5 126.5l115 542l65 22h4l-120 -562q-18 -84 -78 -136.5t-150 -64.5z" />
    <glyph glyph-name="uni0259" unicode="&#x259;" horiz-adv-x="456" 
d="M433 348q1 -88 -39 -172t-113 -137t-156 -51q-61 0 -97 25t-36 68q0 76 106 128q109 55 263 89q3 21 3 42q0 76 -31.5 120.5t-83.5 44.5q-43 0 -91 -26.5t-89 -73.5l-11 7q102 126 222 126q70 0 111.5 -50t41.5 -140zM359 283q-125 -30 -214 -82q-90 -53 -90 -123
q0 -33 20.5 -54.5t56.5 -21.5q80 -3 146.5 85t80.5 196z" />
    <glyph glyph-name="uni02BB" unicode="&#x2bb;" horiz-adv-x="140" 
d="M115 685q0 34 28 67t74 54l4 -5q-60 -35 -60 -79q0 -34 38 -63l-45 -37q-39 22 -39 63z" />
    <glyph glyph-name="uni02BC" unicode="&#x2bc;" horiz-adv-x="144" 
d="M116 622l-4 5q60 34 60 79q0 37 -38 63l45 37q39 -22 39 -63q0 -34 -28 -67t-74 -54z" />
    <glyph glyph-name="circumflex" unicode="&#x2c6;" horiz-adv-x="600" 
d="M428 611l-6 -5l-114 105l-166 -105l-5 5l178 165h6z" />
    <glyph glyph-name="caron" unicode="&#x2c7;" horiz-adv-x="600" 
d="M458 776l5 -5l-178 -165h-6l-107 165l6 5l114 -104z" />
    <glyph glyph-name="uni02C9" unicode="&#x2c9;" horiz-adv-x="600" 
d="M167 654l5 25h262l-5 -25h-262z" />
    <glyph glyph-name="breve" unicode="&#x2d8;" horiz-adv-x="600" 
d="M167 757l9 3q7 -44 38 -71.5t80 -27.5t90.5 26.5t69.5 72.5l9 -3q-66 -139 -178 -139t-118 139z" />
    <glyph glyph-name="dotaccent" unicode="&#x2d9;" horiz-adv-x="600" 
d="M301 624l-45 59l61 47l45 -59z" />
    <glyph glyph-name="ring" unicode="&#x2da;" horiz-adv-x="600" 
d="M208 703q0 41 29.5 68.5t71.5 27.5q43 0 72 -27.5t29 -68.5q0 -42 -29 -69.5t-72 -27.5q-42 0 -71.5 27.5t-29.5 69.5zM374 703q0 39 -17.5 61.5t-47.5 22.5t-47.5 -22.5t-17.5 -61.5t17 -62t48 -23t48 23t17 62z" />
    <glyph glyph-name="ogonek" unicode="&#x2db;" horiz-adv-x="600" 
d="M236 -160q0 40 32 75t108 86h15q-99 -86 -99 -146q0 -21 13.5 -33t34.5 -12q25 0 64 14l3 -5q-59 -36 -107 -36q-29 0 -46.5 15.5t-17.5 41.5z" />
    <glyph glyph-name="tilde" unicode="&#x2dc;" horiz-adv-x="600" 
d="M131 618l-10 2q37 97 102 97q35 0 89 -30q55 -26 76 -26q23 0 39 13t31 43l9 -2q-34 -97 -102 -97q-33 0 -88 30q-51 27 -77 27q-41 0 -69 -57z" />
    <glyph glyph-name="hungarumlaut" unicode="&#x2dd;" horiz-adv-x="600" 
d="M165 606l-6 5l115 165h76zM291 606l-6 5l115 165h75z" />
    <glyph glyph-name="gravecomb" unicode="&#x300;" 
d="M-205 606l-121 170h86l43 -165z" />
    <glyph glyph-name="acutecomb" unicode="&#x301;" 
d="M-231 606l-6 5l115 165h86z" />
    <glyph glyph-name="uni0302" unicode="&#x302;" 
d="M-72 611l-6 -5l-114 105l-166 -105l-5 5l178 165h6z" />
    <glyph glyph-name="tildecomb" unicode="&#x303;" 
d="M-363 618l-9 2q35 97 102 97q30 0 88 -29q50 -27 76 -27q41 0 70 56l9 -2q-34 -97 -102 -97q-32 0 -87 30q-52 27 -77 27q-42 0 -70 -57z" />
    <glyph glyph-name="uni0304" unicode="&#x304;" 
d="M-333 654l5 25h262l-5 -25h-262z" />
    <glyph glyph-name="uni0306" unicode="&#x306;" 
d="M-333 757l9 3q7 -44 38 -71.5t80 -27.5t90.5 26.5t69.5 72.5l9 -3q-66 -139 -178 -139t-118 139z" />
    <glyph glyph-name="uni0307" unicode="&#x307;" 
d="M-208 624l-45 59l61 47l45 -59z" />
    <glyph glyph-name="uni0308" unicode="&#x308;" 
d="M-297 624l-43 54l56 44l42 -55zM-120 624l-42 54l56 44l42 -55z" />
    <glyph glyph-name="uni030A" unicode="&#x30a;" 
d="M-301 703q0 41 29.5 68.5t71.5 27.5t71.5 -27.5t29.5 -68.5q0 -42 -29.5 -69.5t-71.5 -27.5t-71.5 27.5t-29.5 69.5zM-135 703q0 39 -17.5 61.5t-47.5 22.5t-47.5 -22.5t-17.5 -61.5t17 -62t48 -23t48 23t17 62z" />
    <glyph glyph-name="uni030B" unicode="&#x30b;" 
d="M-395 606l-6 5l115 165h76zM-269 606l-6 5l115 165h75z" />
    <glyph glyph-name="uni030C" unicode="&#x30c;" 
d="M-42 776l5 -5l-178 -165h-6l-107 165l6 5l114 -104z" />
    <glyph glyph-name="uni0312" unicode="&#x312;" 
d="M-249 676q0 34 28 67.5t73 53.5l4 -5q-60 -34 -60 -79q0 -34 38 -63l-44 -37q-39 23 -39 63z" />
    <glyph glyph-name="uni0313" unicode="&#x313;" 
d="M-249 613l-4 5q60 35 60 79q0 37 -38 63l45 37q39 -23 39 -63q0 -33 -28 -66.5t-74 -54.5z" />
    <glyph glyph-name="uni0326" unicode="&#x326;" 
d="M-258 -274l-5 7q71 39 71 102q0 42 -43 73l51 43q46 -25 46 -77q0 -42 -33 -82.5t-87 -65.5z" />
    <glyph glyph-name="uni0327" unicode="&#x327;" 
d="M-124 -130q0 -38 -30.5 -62.5t-75.5 -24.5q-41 0 -85 21l5 9q24 -15 66 -15q33 0 56 16t23 40q0 19 -19.5 33t-49.5 15l-24 1l65 97h20l-37 -55q41 -6 63.5 -26.5t22.5 -48.5z" />
    <glyph glyph-name="uni0328" unicode="&#x328;" 
d="M-302 -160q0 40 32.5 75t107.5 86h15q-99 -85 -99 -146q0 -21 13 -33t35 -12q24 0 63 14l3 -5q-58 -36 -106 -36q-30 0 -47 15.5t-17 41.5z" />
    <glyph glyph-name="uni037E" unicode="&#x37e;" horiz-adv-x="224" 
d="M-11 -142l-5 7q75 42 75 100q0 45 -48 81l55 49q50 -27 50 -82q0 -44 -35 -86.5t-92 -68.5zM146 394l-49 63l64 50l50 -63z" />
    <glyph glyph-name="uni0394" unicode="&#x394;" horiz-adv-x="580" 
d="M264 740l287 -740h-578l287 740h4zM487 18l-243 631l-245 -631h488z" />
    <glyph glyph-name="uni03A9" unicode="&#x3a9;" horiz-adv-x="827" 
d="M770 58l-18 -58h-287v26q116 85 171 176t55 199q0 142 -77 232.5t-202 90.5q-126 0 -202.5 -88.5t-76.5 -230.5q0 -105 54.5 -197t171.5 -182v-26h-287l-18 58q88 -20 201 -20h60q-125 100 -183 182q-57 82 -57 181q-2 145 95.5 243t241.5 96q152 0 244.5 -92.5
t92.5 -242.5q0 -99 -58 -184q-60 -86 -182 -183h60q113 0 201 20z" />
    <glyph glyph-name="uni03BC" unicode="&#x3bc;" horiz-adv-x="525" 
d="M519 535h4l-114 -535h-63l53 250h-8q-103 -262 -259 -262q-56 0 -81 36q-4 -111 -18 -176l-13 -60h-63l83 397l72 328l64 22h4l-77 -358q-9 -45 -9 -71q0 -85 65 -85q82 0 163.5 127t132.5 365z" />
    <glyph glyph-name="pi" unicode="&#x3c0;" horiz-adv-x="718" 
d="M652 37l8 -12q-66 -37 -119 -37q-120 0 -120 146v368h-187v-76q0 -257 -28 -426h-48q28 147 28 428v74h-118v22h396q124 0 180 10l-18 -32h-157v-360q0 -130 93 -130q44 0 90 25z" />
    <glyph glyph-name="Wgrave" unicode="&#x1e80;" horiz-adv-x="876" 
d="M917 728h48q-107 -196 -171 -319l-222 -422h-3l-62 605l-322 -605h-4l-74 741h69l59 -605l322 605h4l61 -604l153 292q98 183 142 312zM588 802l-132 160h98l42 -155z" />
    <glyph glyph-name="wgrave" unicode="&#x1e81;" horiz-adv-x="698" 
d="M696 526h50q-59 -95 -172 -299l-134 -239h-6l-52 423l-232 -423h-7l-80 538h64l62 -428l235 428h7l51 -425l75 134q112 202 139 291zM459 606l-121 170h86l43 -165z" />
    <glyph glyph-name="Wacute" unicode="&#x1e82;" horiz-adv-x="876" 
d="M917 728h48q-107 -196 -171 -319l-222 -422h-3l-62 605l-322 -605h-4l-74 741h69l59 -605l322 605h4l61 -604l153 292q98 183 142 312zM562 802l-6 5l110 155h98z" />
    <glyph glyph-name="wacute" unicode="&#x1e83;" horiz-adv-x="698" 
d="M696 526h50q-59 -95 -172 -299l-134 -239h-6l-52 423l-232 -423h-7l-80 538h64l62 -428l235 428h7l51 -425l75 134q112 202 139 291zM433 606l-6 5l115 165h86z" />
    <glyph glyph-name="Wdieresis" unicode="&#x1e84;" horiz-adv-x="876" 
d="M917 728h48q-107 -196 -171 -319l-222 -422h-3l-62 605l-322 -605h-4l-74 741h69l59 -605l322 605h4l61 -604l153 292q98 183 142 312zM491 820l-43 54l56 44l42 -55zM675 820l-42 54l56 44l42 -55z" />
    <glyph glyph-name="wdieresis" unicode="&#x1e85;" horiz-adv-x="698" 
d="M696 526h50q-59 -95 -172 -299l-134 -239h-6l-52 423l-232 -423h-7l-80 538h64l62 -428l235 428h7l51 -425l75 134q112 202 139 291zM356 624l-43 54l56 44l42 -55zM533 624l-42 54l56 44l42 -55z" />
    <glyph glyph-name="uni1E9E" unicode="&#x1e9e;" horiz-adv-x="640" 
d="M608 213q0 -94 -71.5 -157.5t-172.5 -63.5q-98 0 -158 50l21 44q20 -35 58 -56.5t78 -21.5q74 0 121.5 60t47.5 142q0 69 -42.5 111.5t-125.5 54.5l-26 3l205 289q-73 55 -155 55q-154 0 -198 -216l-108 -507h-69l108 507q23 110 92 171.5t170 61.5q123 0 230 -81
l-191 -269q89 -16 137.5 -62.5t48.5 -114.5z" />
    <glyph glyph-name="Ygrave" unicode="&#x1ef2;" horiz-adv-x="530" 
d="M390 431l-78 -104l-70 -327h-69l71 331l-130 397h73l119 -381l70 93q131 173 188 288h50q-64 -82 -224 -297zM401 802l-132 160h98l42 -155z" />
    <glyph glyph-name="ygrave" unicode="&#x1ef3;" horiz-adv-x="442" 
d="M441 526h50q-53 -82 -177 -294l-185 -317q-52 -88 -103 -118.5t-122 -30.5l14 48q17 -5 37 -5q41 0 81.5 27t72.5 81l51 88l-99 521h65l83 -438l88 150q111 190 144 288zM328 606l-121 170h86l43 -165z" />
    <glyph glyph-name="uni200B" unicode="&#x200b;" 
 />
    <glyph glyph-name="endash" unicode="&#x2013;" horiz-adv-x="467" 
d="M44 295l4 18h390l-4 -18h-390z" />
    <glyph glyph-name="emdash" unicode="&#x2014;" horiz-adv-x="757" 
d="M44 295l4 18h680l-4 -18h-680z" />
    <glyph glyph-name="uni2015" unicode="&#x2015;" horiz-adv-x="757" 
d="M44 295l4 18h680l-4 -18h-680z" />
    <glyph glyph-name="quoteleft" unicode="&#x2018;" horiz-adv-x="170" 
d="M226 740l5 -7q-75 -43 -75 -101q0 -44 48 -81l-55 -48q-50 27 -50 81q0 44 35 87.5t92 68.5z" />
    <glyph glyph-name="quoteright" unicode="&#x2019;" horiz-adv-x="175" 
d="M98 503l-5 7q75 42 75 100q0 45 -48 81l55 49q50 -27 50 -82q0 -44 -35 -86.5t-92 -68.5z" />
    <glyph glyph-name="quotesinglbase" unicode="&#x201a;" horiz-adv-x="170" 
d="M-35 -142l-5 7q75 42 75 100q0 45 -48 81l55 49q50 -27 50 -82q0 -44 -35 -86.5t-92 -68.5z" />
    <glyph glyph-name="quotedblleft" unicode="&#x201c;" horiz-adv-x="337" 
d="M226 740l5 -7q-75 -43 -75 -101q0 -44 48 -81l-55 -48q-50 27 -50 81q0 44 35 87.5t92 68.5zM392 740l5 -7q-74 -42 -74 -101q0 -45 48 -81l-55 -48q-50 27 -50 81q0 44 34.5 87t91.5 69z" />
    <glyph glyph-name="quotedblright" unicode="&#x201d;" horiz-adv-x="341" 
d="M265 503l-5 7q75 42 75 100q0 45 -48 81l55 49q50 -27 50 -82q0 -44 -35 -86.5t-92 -68.5zM98 503l-5 7q75 42 75 100q0 45 -48 81l55 49q50 -27 50 -82q0 -44 -35 -86.5t-92 -68.5z" />
    <glyph glyph-name="quotedblbase" unicode="&#x201e;" horiz-adv-x="336" 
d="M-35 -142l-5 7q75 42 75 100q0 45 -48 81l55 49q50 -27 50 -82q0 -44 -35 -86.5t-92 -68.5zM132 -142l-5 7q75 42 75 100q0 45 -48 81l55 49q50 -27 50 -82q0 -44 -35 -86.5t-92 -68.5z" />
    <glyph glyph-name="dagger" unicode="&#x2020;" horiz-adv-x="448" 
d="M478 513l-11 -54l-193 21l-24 -203l-91 -427l-31 -36l-17 36l91 427l61 203l-200 -21l11 54l192 -21l31 248h54l-74 -248z" />
    <glyph glyph-name="daggerdbl" unicode="&#x2021;" horiz-adv-x="475" 
d="M290 480l-21 -203l-64 -203l200 21l-11 -54l-192 21l-31 -248h-54l74 248l-201 -21l11 54l193 -21l21 203l64 203l-200 -21l11 54l192 -21l31 248h54l-74 -248l201 21l-11 -54z" />
    <glyph glyph-name="bullet" unicode="&#x2022;" horiz-adv-x="303" 
d="M146 206l-79 100l102 80l79 -100z" />
    <glyph glyph-name="ellipsis" unicode="&#x2026;" horiz-adv-x="473" 
d="M31 -20l-49 63l64 50l50 -63zM185 -20l-49 63l64 50l50 -63zM339 -20l-49 63l64 50l50 -63z" />
    <glyph glyph-name="perthousand" unicode="&#x2030;" horiz-adv-x="1053" 
d="M86 523q-1 83 50.5 148t125.5 63q60 0 97 -39.5t37 -104.5q0 -84 -49.5 -147t-124.5 -63q-60 0 -98 39t-38 104zM85 0l562 728h25l-562 -728h-25zM353 603q0 56 -24.5 87.5t-67.5 31.5q-58 0 -94.5 -64.5t-36.5 -146.5q0 -56 24 -87.5t67 -31.5q59 0 95.5 64t36.5 147z
M360 138q0 84 50.5 147t124.5 63q60 0 97.5 -39t37.5 -104q2 -83 -49.5 -148t-125.5 -63q-60 0 -97.5 39.5t-37.5 104.5zM698 138q0 84 50 147t125 63q60 0 97.5 -39t37.5 -104q1 -83 -50.5 -148t-125.5 -63q-60 0 -97 39.5t-37 104.5zM627 217q0 56 -24 87.5t-67 31.5
q-59 0 -95.5 -64t-36.5 -147q0 -56 24 -87.5t67 -31.5q59 0 95.5 64t36.5 147zM964 217q0 56 -24 87.5t-67 31.5q-59 0 -95 -64t-36 -147q0 -56 24 -87.5t67 -31.5q58 0 94.5 64.5t36.5 146.5z" />
    <glyph glyph-name="minute" unicode="&#x2032;" horiz-adv-x="161" 
d="M79 452l102 288h64l-156 -288h-10z" />
    <glyph glyph-name="second" unicode="&#x2033;" horiz-adv-x="295" 
d="M79 452l102 288h64l-156 -288h-10zM212 452l103 288h64l-157 -288h-10z" />
    <glyph glyph-name="guilsinglleft" unicode="&#x2039;" horiz-adv-x="274" 
d="M289 504l-187 -246l84 -234h-12l-143 240l246 240h12z" />
    <glyph glyph-name="guilsinglright" unicode="&#x203a;" horiz-adv-x="274" 
d="M100 504l143 -240l-246 -240h-12l187 246l-84 234h12z" />
    <glyph glyph-name="fraction" unicode="&#x2044;" horiz-adv-x="100" 
d="M-238 0l594 728h25l-594 -728h-25z" />
    <glyph glyph-name="uni2070" unicode="&#x2070;" horiz-adv-x="372" 
d="M84 466q-1 65 22 127t66.5 102.5t96.5 38.5q59 0 93 -43t34 -117q1 -65 -21.5 -127t-66 -102.5t-96.5 -38.5q-59 0 -93.5 43t-34.5 117zM349 597q0 60 -20.5 92.5t-59.5 32.5q-41 2 -74 -44.5t-49 -110t-15 -124.5q0 -60 20.5 -93t59.5 -33q40 -2 73.5 45t49.5 111
t15 124z" />
    <glyph glyph-name="uni2074" unicode="&#x2074;" horiz-adv-x="309" 
d="M331 460l-16 -30h-53l-25 -118h-43l25 118h-172v9l271 294h8l-58 -273h63zM88 460h137l40 193z" />
    <glyph glyph-name="uni2075" unicode="&#x2075;" horiz-adv-x="284" 
d="M324 694h-158l-34 -112q76 -6 117.5 -40t41.5 -92q0 -63 -43 -103.5t-105 -40.5q-49 0 -98 32l11 27q33 -47 86 -47q48 0 78.5 33.5t30.5 84.5q0 101 -147 109l55 183h181z" />
    <glyph glyph-name="uni2076" unicode="&#x2076;" horiz-adv-x="315" 
d="M73 434q-2 98 70.5 188t170.5 112l2 -10q-84 -23 -139 -114t-55 -192t69 -101q43 0 67 45q25 46 25 101q0 38 -17 59.5t-48 21.5q-28 0 -56 -20l-5 9q36 30 74 30q44 0 72.5 -30t28.5 -77q0 -63 -42 -106.5t-99 -43.5q-54 0 -86 34.5t-32 93.5z" />
    <glyph glyph-name="uni2077" unicode="&#x2077;" horiz-adv-x="266" 
d="M117 728h235v-4l-228 -412h-47l243 383h-58q-106 0 -164 -14z" />
    <glyph glyph-name="uni2078" unicode="&#x2078;" horiz-adv-x="314" 
d="M317 427q0 -50 -41 -85.5t-97 -35.5q-49 0 -82.5 25.5t-33.5 65.5q0 44 31.5 79t82.5 50q-55 41 -55 91t34.5 83t85.5 33q42 0 70.5 -24.5t28.5 -59.5q0 -38 -26.5 -68.5t-71.5 -46.5q74 -50 74 -107zM159 632q0 -45 58 -82l14 -9q73 39 73 111q0 31 -17.5 50.5
t-46.5 19.5q-34 0 -57.5 -26.5t-23.5 -63.5zM279 412q0 48 -63 89l-23 14l-6 4q-39 -16 -62 -49.5t-23 -72.5q0 -35 22.5 -57.5t57.5 -22.5q40 0 68 28q29 29 29 67z" />
    <glyph glyph-name="uni2079" unicode="&#x2079;" horiz-adv-x="315" 
d="M109 306l-2 10q84 23 139 113.5t55 191.5q0 48 -18 74.5t-51 26.5q-43 0 -68 -46q-25 -44 -25 -99q0 -38 17.5 -59.5t48.5 -21.5q28 0 56 20l5 -9q-36 -30 -74 -30q-45 0 -73.5 30t-28.5 77q0 63 42 106.5t99 43.5q54 0 86 -35t32 -94q2 -99 -70 -188.5t-170 -110.5z" />
    <glyph glyph-name="uni2080" unicode="&#x2080;" horiz-adv-x="372" 
d="M-16 -2q-1 65 22 127t66.5 102.5t96.5 38.5q59 0 93 -43t34 -117q1 -65 -21.5 -127t-66 -102.5t-96.5 -38.5q-59 0 -93.5 43t-34.5 117zM249 129q0 60 -20.5 92.5t-59.5 32.5q-41 2 -74 -44.5t-49 -110t-15 -124.5q0 -60 20.5 -93t59.5 -33q40 -2 73.5 45t49.5 111
t15 124z" />
    <glyph glyph-name="uni2081" unicode="&#x2081;" horiz-adv-x="179" 
d="M121 266h4l-90 -422h-42l74 350q-20 -12 -71 -27l2 10q65 20 123 89z" />
    <glyph glyph-name="uni2082" unicode="&#x2082;" horiz-adv-x="295" 
d="M-17 -124h36q94 0 171 11l-22 -43h-233l1 3l38 34q114 102 165 166.5t51 121.5q0 33 -18 52t-49 19q-59 0 -105 -67l-10 5q50 88 130 88q45 0 73 -26t28 -70q0 -35 -26 -73q-27 -40 -77 -87q-51 -48 -149 -131z" />
    <glyph glyph-name="uni2083" unicode="&#x2083;" horiz-adv-x="294" 
d="M-51 -128l13 29q35 -51 89 -51q47 0 77 32.5t30 77.5q0 42 -24.5 65t-75.5 31l-1 10l22 6q45 11 72 41.5t27 69.5q0 27 -18 43t-46 16q-48 0 -93 -47l-9 6q54 65 116 65q44 0 69.5 -21t25.5 -57q0 -39 -28 -68t-72 -44v-2q33 -9 54.5 -37.5t21.5 -64.5q0 -57 -43.5 -95.5
t-105.5 -38.5q-51 0 -101 34z" />
    <glyph glyph-name="uni2084" unicode="&#x2084;" horiz-adv-x="309" 
d="M233 -8l-16 -30h-53l-25 -118h-43l25 118h-172v9l271 294h8l-58 -273h63zM-10 -8h137l40 193z" />
    <glyph glyph-name="uni2085" unicode="&#x2085;" horiz-adv-x="284" 
d="M225 226h-158l-34 -112q76 -6 117.5 -40t41.5 -92q0 -63 -43 -103.5t-105 -40.5q-49 0 -98 32l11 27q33 -47 86 -47q48 0 78.5 33.5t30.5 84.5q0 101 -147 109l55 183h181z" />
    <glyph glyph-name="uni2086" unicode="&#x2086;" horiz-adv-x="315" 
d="M-27 -34q-2 98 70.5 188t170.5 112l2 -10q-84 -23 -139 -114t-55 -192t69 -101q43 0 67 46q25 44 25 100q0 38 -17 59.5t-48 21.5q-28 0 -56 -20l-5 9q36 30 74 30q44 0 72.5 -30t28.5 -77q0 -63 -42 -106.5t-99 -43.5q-54 0 -86 34.5t-32 93.5z" />
    <glyph glyph-name="uni2087" unicode="&#x2087;" horiz-adv-x="266" 
d="M18 260h235v-4l-228 -412h-47l243 383h-58q-106 0 -164 -14z" />
    <glyph glyph-name="uni2088" unicode="&#x2088;" horiz-adv-x="314" 
d="M218 -41q0 -50 -41 -85.5t-97 -35.5q-49 0 -82.5 25.5t-33.5 65.5q0 44 31.5 79t82.5 50q-55 41 -55 91t34.5 83t85.5 33q42 0 70.5 -24.5t28.5 -59.5q0 -38 -26.5 -68.5t-71.5 -46.5q74 -50 74 -107zM60 164q0 -45 58 -82l14 -9q73 39 73 111q0 31 -17.5 50.5
t-46.5 19.5q-34 0 -57.5 -26.5t-23.5 -63.5zM180 -56q0 49 -63 89l-23 14l-6 4q-39 -16 -62 -49.5t-23 -72.5q0 -35 22.5 -57.5t57.5 -22.5q39 0 68 29t29 66z" />
    <glyph glyph-name="uni2089" unicode="&#x2089;" horiz-adv-x="315" 
d="M10 -162l-2 10q84 23 139 113.5t55 191.5q0 48 -18 74.5t-51 26.5q-43 0 -68 -46q-25 -44 -25 -99q0 -38 17.5 -59.5t48.5 -21.5q28 0 56 20l5 -9q-36 -30 -74 -30q-45 0 -73.5 30t-28.5 77q0 63 42 106.5t99 43.5q54 0 86 -35t32 -94q2 -99 -70 -188.5t-170 -110.5z" />
    <glyph glyph-name="Euro" unicode="&#x20ac;" horiz-adv-x="635" 
d="M667 648l-36 -30q-61 105 -161 105q-96 0 -169 -82.5t-105 -208.5h264l-9 -18h-259q-10 -42 -13 -98h221l-9 -18h-212v-4q0 -123 57.5 -197t151.5 -74q99 0 175 70l10 -11q-96 -93 -211 -93q-114 0 -186 82.5t-72 218.5v8h-63l4 18h60q2 53 14 98h-53l4 18h53
q37 135 130 221.5t215 86.5q126 0 199 -92z" />
    <glyph glyph-name="uni2113" unicode="&#x2113;" horiz-adv-x="342" 
d="M266 80l11 -8q-78 -84 -147 -84q-78 0 -78 92q0 32 9 74l12 56l-63 -34l-5 14q48 25 72 40l57 264q27 127 66.5 186.5t96.5 59.5q40 0 62 -28t22 -80q0 -214 -252 -387l-23 -105q-10 -47 -10 -75q0 -58 45 -58q55 0 125 73zM185 508l-52 -241q206 152 206 384
q0 75 -45 75q-32 0 -53 -34q-19 -33 -30 -72q-4 -15 -26 -112z" />
    <glyph glyph-name="uni2116" unicode="&#x2116;" horiz-adv-x="994" 
d="M592 728h46q-38 -116 -81 -318l-90 -422h-7l-280 652l-68 -322q-45 -210 -54 -318h-47q35 104 81 318l75 353l-23 54l1 3h72l258 -610l62 292q46 213 55 318zM639 441q0 92 59.5 159t145.5 67q71 0 114.5 -44.5t43.5 -116.5q0 -93 -60 -159.5t-145 -66.5q-72 0 -115 44.5
t-43 116.5zM692 432q0 -61 29 -99.5t77 -38.5q63 -2 107.5 68.5t43.5 153.5q0 61 -29 99t-77 38q-62 3 -107.5 -68t-43.5 -153zM655 180l3 18h278l-4 -18h-277z" />
    <glyph glyph-name="uni2117" unicode="&#x2117;" horiz-adv-x="636" 
d="M633 469q2 -109 -80 -190.5t-191 -79.5q-110 -2 -192 79.5t-80 190.5q-2 108 80 190.5t192 80.5q109 2 191 -80.5t80 -190.5zM611 471q2 101 -73.5 177t-175.5 74q-101 2 -176.5 -74t-73.5 -177q-2 -101 73.5 -177.5t176.5 -74.5q100 -2 175.5 74.5t73.5 177.5zM493 541
q0 -46 -35.5 -74.5t-93.5 -28.5q-22 0 -35 3v-139h-29v331h64q62 0 95.5 -23.5t33.5 -68.5zM461 535q0 41 -25.5 63t-71.5 22h-35v-165q13 -3 34 -3q47 0 72.5 21.5t25.5 61.5z" />
    <glyph glyph-name="trademark" unicode="&#x2122;" horiz-adv-x="759" 
d="M289 713h-13l-76 -359h-32l76 359h-11q-33 0 -56 -3q-15 -1 -64 -8l14 26h274l2 -26q-43 7 -59 8q-21 3 -55 3zM751 728h8l-44 -374h-33l37 299l-186 -274h-4l-77 275l-40 -137q-26 -91 -43 -163h-26q22 59 52 162l63 212h8l82 -299z" />
    <glyph glyph-name="uni2126" unicode="&#x2126;" horiz-adv-x="847" 
d="M782 58l-18 -58h-287v26q116 85 171 176t55 199q0 142 -77 232.5t-202 90.5q-126 0 -202.5 -88.5t-76.5 -230.5q0 -105 54.5 -197t171.5 -182v-26h-287l-18 58q88 -20 201 -20h60q-125 100 -183 182q-57 82 -57 181q-2 145 95.5 243t241.5 96q152 0 244.5 -92.5
t92.5 -242.5q0 -99 -58 -184q-60 -86 -182 -183h60q113 0 201 20z" />
    <glyph glyph-name="estimated" unicode="&#x212e;" horiz-adv-x="799" 
d="M736 200l16 -8q-49 -97 -134.5 -151.5t-189.5 -54.5q-98 -2 -182 50t-131 140t-46 188q-2 151 105 262t254 108q150 3 256.5 -110t103.5 -270h-591v-229q0 -30 25 -49q94 -70 206 -70q99 0 180.5 51.5t127.5 142.5zM197 591v-217h462v217q0 33 -25 53q-92 70 -206 70
t-206 -70q-25 -19 -25 -53z" />
    <glyph glyph-name="oneeighth" unicode="&#x215b;" horiz-adv-x="733" 
d="M230 734h4l-90 -422h-42l74 350q-20 -12 -71 -27l2 10q65 20 123 89zM34 0l594 728h25l-594 -728h-25zM671 115q0 -50 -41 -85.5t-97 -35.5q-49 0 -82.5 25.5t-33.5 65.5q0 44 31.5 79t82.5 50q-55 41 -55 91t34.5 83t85.5 33q42 0 70.5 -24.5t28.5 -59.5
q0 -38 -26.5 -68.5t-71.5 -46.5q74 -50 74 -107zM513 320q0 -45 58 -82l14 -9q73 39 73 111q0 31 -17.5 50.5t-46.5 19.5q-34 0 -57.5 -26.5t-23.5 -63.5zM633 100q0 48 -63 89l-23 14l-6 4q-39 -16 -62 -49.5t-23 -72.5q0 -35 22.5 -57.5t57.5 -22.5q40 0 68 28
q29 29 29 67z" />
    <glyph glyph-name="threeeighths" unicode="&#x215c;" horiz-adv-x="788" 
d="M49 340l13 29q35 -51 89 -51q47 0 77 32.5t30 77.5q0 42 -24.5 65t-75.5 31l-1 10l22 6q45 11 72 41.5t27 69.5q0 27 -18 43t-46 16q-48 0 -93 -47l-9 6q54 65 116 65q44 0 69.5 -21t25.5 -57q0 -39 -28 -68t-72 -44v-2q33 -9 54.5 -37.5t21.5 -64.5q0 -57 -43.5 -95.5
t-105.5 -38.5q-51 0 -101 34zM90 0l594 728h25l-594 -728h-25zM727 115q0 -50 -41 -85.5t-97 -35.5q-49 0 -82.5 25.5t-33.5 65.5q0 44 31.5 79t82.5 50q-55 41 -55 91t34.5 83t85.5 33q42 0 70.5 -24.5t28.5 -59.5q0 -38 -26.5 -68.5t-71.5 -46.5q74 -50 74 -107zM569 320
q0 -45 58 -82l14 -9q73 39 73 111q0 31 -17.5 50.5t-46.5 19.5q-34 0 -57.5 -26.5t-23.5 -63.5zM689 100q0 48 -63 89l-23 14l-6 4q-39 -16 -62 -49.5t-23 -72.5q0 -35 22.5 -57.5t57.5 -22.5q40 0 68 28q29 29 29 67z" />
    <glyph glyph-name="fiveeighths" unicode="&#x215d;" horiz-adv-x="787" 
d="M326 694h-158l-34 -112q76 -6 117.5 -40t41.5 -92q0 -63 -43 -103.5t-105 -40.5q-49 0 -98 32l11 27q33 -47 86 -47q48 0 78.5 33.5t30.5 84.5q0 101 -147 109l55 183h181zM89 0l594 728h25l-594 -728h-25zM726 115q0 -50 -41 -85.5t-97 -35.5q-49 0 -82.5 25.5
t-33.5 65.5q0 44 31.5 79t82.5 50q-55 41 -55 91t34.5 83t85.5 33q42 0 70.5 -24.5t28.5 -59.5q0 -38 -26.5 -68.5t-71.5 -46.5q74 -50 74 -107zM568 320q0 -45 58 -82l14 -9q73 39 73 111q0 31 -17.5 50.5t-46.5 19.5q-34 0 -57.5 -26.5t-23.5 -63.5zM688 100q0 48 -63 89
l-23 14l-6 4q-39 -16 -62 -49.5t-23 -72.5q0 -35 22.5 -57.5t57.5 -22.5q40 0 68 28q29 29 29 67z" />
    <glyph glyph-name="seveneighths" unicode="&#x215e;" horiz-adv-x="798" 
d="M130 728h235v-4l-228 -412h-47l243 383h-58q-106 0 -164 -14zM92 0l594 728h25l-594 -728h-25zM729 115q0 -50 -41 -85.5t-97 -35.5q-49 0 -82.5 25.5t-33.5 65.5q0 44 31.5 79t82.5 50q-55 41 -55 91t34.5 83t85.5 33q42 0 70.5 -24.5t28.5 -59.5q0 -38 -26.5 -68.5
t-71.5 -46.5q74 -50 74 -107zM571 320q0 -45 58 -82l14 -9q73 39 73 111q0 31 -17.5 50.5t-46.5 19.5q-34 0 -57.5 -26.5t-23.5 -63.5zM691 100q0 48 -63 89l-23 14l-6 4q-39 -16 -62 -49.5t-23 -72.5q0 -35 22.5 -57.5t57.5 -22.5q40 0 68 28q29 29 29 67z" />
    <glyph glyph-name="arrowleft" unicode="&#x2190;" horiz-adv-x="841" 
d="M817 364q2 -100 -49 -187.5t-138.5 -139t-187.5 -49.5q-153 -3 -265.5 110t-109.5 266q-3 153 109.5 266t265.5 110q100 2 187.5 -49.5t138.5 -139t49 -187.5zM795 364q3 146 -103 253.5t-250 104.5q-144 3 -250 -104.5t-103 -253.5q-3 -146 103 -253.5t250 -104.5
q144 -3 250 104.5t103 253.5zM680 265q0 -8 -1 -10h-127q-5 22 -24 53q-20 34 -34 48h-136q53 -80 75 -191l-9 -4q-40 52 -112 112q-71 61 -130 91q57 29 130 90q73 62 112 113l9 -4q-22 -111 -75 -191h136q13 13 34 47q20 33 24 54h127q4 -26 -16 -60q-20 -33 -47 -49
q26 -14 45 -43.5t19 -55.5zM605 457h-41q-20 -49 -49 -85h34q17 13 33.5 38t22.5 47zM663 457h-41q-12 -50 -51 -85h28q22 10 41.5 35.5t22.5 49.5zM549 356h-34q29 -36 49 -85h41q-6 22 -22.5 47t-33.5 38zM599 356h-28q39 -35 51 -85h41q-3 24 -22.5 49.5t-41.5 35.5z" />
    <glyph glyph-name="arrowup" unicode="&#x2191;" horiz-adv-x="841" 
d="M817 364q2 -100 -49 -187.5t-138.5 -139t-187.5 -49.5q-153 -3 -265.5 110t-109.5 266q-3 153 109.5 266t265.5 110q100 2 187.5 -49.5t138.5 -139t49 -187.5zM795 364q3 146 -103 253.5t-250 104.5q-144 3 -250 -104.5t-103 -253.5q-3 -146 103 -253.5t250 -104.5
q144 -3 250 104.5t103 253.5zM645 383l-4 -9q-111 22 -191 75v-136q13 -13 47 -34q33 -19 54 -24v-127q-2 -1 -10 -1q-26 0 -55.5 19t-43.5 45q-17 -29 -49 -48q-33 -19 -60 -15v127q22 5 53 24q34 20 48 34v136q-80 -53 -191 -75l-4 9q52 40 112 112q61 71 91 130
q29 -57 90 -130q62 -73 113 -112zM434 258v34q-36 -29 -85 -49v-41q22 6 47 22.5t38 33.5zM535 202v41q-49 20 -85 49v-34q13 -17 38 -33.5t47 -22.5zM434 208v28q-35 -39 -85 -51v-41q24 3 49.5 22.5t35.5 41.5zM535 144v41q-50 12 -85 51v-28q10 -22 35.5 -41.5
t49.5 -22.5z" />
    <glyph glyph-name="arrowright" unicode="&#x2192;" horiz-adv-x="841" 
d="M817 364q2 -100 -49 -187.5t-138.5 -139t-187.5 -49.5q-153 -3 -265.5 110t-109.5 266q-3 153 109.5 266t265.5 110q100 2 187.5 -49.5t138.5 -139t49 -187.5zM795 364q3 146 -103 253.5t-250 104.5q-144 3 -250 -104.5t-103 -253.5q-3 -146 103 -253.5t250 -104.5
q144 -3 250 104.5t103 253.5zM702 364q-59 -30 -130 -91q-72 -60 -112 -112l-9 4q22 111 75 191h-136q-14 -14 -34 -48q-19 -31 -24 -53h-127q-1 2 -1 10q0 26 19 55.5t45 43.5q-29 17 -48 49q-20 33 -15 60h127q4 -21 24 -54q21 -34 34 -47h136q-53 80 -75 191l9 4
q39 -51 112 -113q73 -61 130 -90zM285 372h28q-39 35 -51 85h-41q3 -24 22.5 -49.5t41.5 -35.5zM335 372h34q-29 36 -49 85h-41q6 -22 22.5 -47t33.5 -38zM221 271h41q12 50 51 85h-28q-22 -10 -41.5 -35.5t-22.5 -49.5zM279 271h41q20 49 49 85h-34q-17 -13 -33.5 -38
t-22.5 -47z" />
    <glyph glyph-name="arrowdown" unicode="&#x2193;" horiz-adv-x="841" 
d="M817 364q2 -100 -49 -187.5t-138.5 -139t-187.5 -49.5q-153 -3 -265.5 110t-109.5 266q-3 153 109.5 266t265.5 110q100 2 187.5 -49.5t138.5 -139t49 -187.5zM795 364q3 146 -103 253.5t-250 104.5q-144 3 -250 -104.5t-103 -253.5q-3 -146 103 -253.5t250 -104.5
q144 -3 250 104.5t103 253.5zM641 354l4 -9q-51 -39 -113 -112q-61 -73 -90 -130q-30 59 -91 130q-60 72 -112 112l4 9q111 -22 191 -75v136q-14 14 -48 34q-31 19 -53 24v127q26 4 60 -16q33 -20 49 -47q14 26 43.5 45t55.5 19q8 0 10 -1v-127q-21 -5 -54 -24
q-34 -21 -47 -34v-136q80 53 191 75zM349 584v-41q50 -12 85 -51v28q-10 22 -35.5 41.5t-49.5 22.5zM450 520v-28q35 39 85 51v41q-24 -3 -49.5 -22.5t-35.5 -41.5zM349 526v-41q49 -20 85 -49v34q-13 17 -38 33.5t-47 22.5zM450 470v-34q36 29 85 49v41q-22 -6 -47 -22.5
t-38 -33.5z" />
    <glyph glyph-name="uni2196" unicode="&#x2196;" horiz-adv-x="841" 
d="M817 364q2 -100 -49 -187.5t-138.5 -139t-187.5 -49.5q-153 -3 -265.5 110t-109.5 266q-3 153 109.5 266t265.5 110q100 2 187.5 -49.5t138.5 -139t49 -187.5zM795 364q3 146 -103 253.5t-250 104.5q-144 3 -250 -104.5t-103 -253.5q-3 -146 103 -253.5t250 -104.5
q144 -3 250 104.5t103 253.5zM597 363l90 -90q-25 -36 -91 -36q-16 0 -30 3q3 -14 3 -30q0 -66 -36 -91l-90 90q12 22 20 55q10 34 10 58l-97 96q-17 -94 -81 -188l-9 3q4 25 4 72q0 145 -32 243q98 -32 243 -32q47 0 72 4l3 -9q-94 -64 -188 -81l96 -97q22 0 58 9
q35 10 55 21zM537 293q47 0 86 22l-28 28q-49 -20 -96 -25l24 -24q3 -1 14 -1zM463 211l28 -28q22 39 22 86q0 11 -1 14l-24 24q-5 -47 -25 -96zM593 253q43 0 71 20l-29 30q-45 -29 -97 -24l21 -21q15 -5 34 -5zM553 213q0 21 -5 34l-21 21q5 -52 -24 -97l30 -29
q20 28 20 71z" />
    <glyph glyph-name="uni2197" unicode="&#x2197;" horiz-adv-x="841" 
d="M817 364q2 -100 -49 -187.5t-138.5 -139t-187.5 -49.5q-153 -3 -265.5 110t-109.5 266q-3 153 109.5 266t265.5 110q100 2 187.5 -49.5t138.5 -139t49 -187.5zM795 364q3 146 -103 253.5t-250 104.5q-144 3 -250 -104.5t-103 -253.5q-3 -146 103 -253.5t250 -104.5
q144 -3 250 104.5t103 253.5zM383 516q145 0 243 32q-32 -98 -32 -243q0 -47 4 -72l-9 -3q-64 94 -81 188l-97 -96q0 -22 9 -58q10 -35 21 -55l-90 -90q-36 25 -36 91q0 16 3 30q-14 -3 -30 -3q-66 0 -91 36l90 90q20 -11 55 -21q36 -9 58 -9l96 97q-94 17 -188 81l3 9
q25 -4 72 -4zM361 294l24 24q-47 5 -96 25l-28 -28q39 -22 86 -22q11 0 14 1zM396 307l-24 -24q-1 -3 -1 -14q0 -47 22 -86l28 28q-20 49 -25 96zM291 253q21 0 34 5l21 21q-52 -5 -97 24l-29 -30q28 -20 71 -20zM331 213q0 -43 20 -71l30 29q-29 45 -24 97l-21 -21
q-5 -13 -5 -34z" />
    <glyph glyph-name="uni2198" unicode="&#x2198;" horiz-adv-x="841" 
d="M817 364q2 -100 -49 -187.5t-138.5 -139t-187.5 -49.5q-153 -3 -265.5 110t-109.5 266q-3 153 109.5 266t265.5 110q100 2 187.5 -49.5t138.5 -139t49 -187.5zM795 364q3 146 -103 253.5t-250 104.5q-144 3 -250 -104.5t-103 -253.5q-3 -146 103 -253.5t250 -104.5
q144 -3 250 104.5t103 253.5zM594 423q0 -145 32 -243q-98 32 -243 32q-47 0 -72 -4l-3 9q94 64 188 81l-96 97q-24 0 -58 -10q-33 -8 -55 -20l-90 90q25 36 91 36q16 0 30 -3q-3 14 -3 30q0 66 36 91l90 -90q-11 -20 -21 -55q-9 -36 -9 -58l97 -96q17 94 81 188l9 -3
q-4 -25 -4 -72zM331 515q0 -19 5 -34l21 -21q-5 52 24 97l-30 29q-20 -28 -20 -71zM421 517l-28 28q-22 -39 -22 -86q0 -11 1 -14l24 -24q5 47 25 96zM291 475q-43 0 -71 -20l29 -30q45 29 97 24l-21 21q-13 5 -34 5zM347 435q-47 0 -86 -22l28 -28q49 20 96 25l-24 24
q-3 1 -14 1z" />
    <glyph glyph-name="uni2199" unicode="&#x2199;" horiz-adv-x="841" 
d="M817 364q2 -100 -49 -187.5t-138.5 -139t-187.5 -49.5q-153 -3 -265.5 110t-109.5 266q-3 153 109.5 266t265.5 110q100 2 187.5 -49.5t138.5 -139t49 -187.5zM795 364q3 146 -103 253.5t-250 104.5q-144 3 -250 -104.5t-103 -253.5q-3 -146 103 -253.5t250 -104.5
q144 -3 250 104.5t103 253.5zM596 491q66 0 91 -36l-90 -90q-22 12 -55 20q-34 10 -58 10l-96 -97q94 -17 188 -81l-3 -9q-25 4 -72 4q-145 0 -243 -32q32 98 32 243q0 47 -4 72l9 3q64 -94 81 -188l97 96q0 24 -10 58q-8 33 -20 55l90 90q36 -25 36 -91q0 -16 -3 -30
q14 3 30 3zM553 515q0 43 -20 71l-30 -29q29 -45 24 -97l21 21q5 15 5 34zM488 421l24 24q1 3 1 14q0 47 -22 86l-28 -28q20 -49 25 -96zM593 475q-19 0 -34 -5l-21 -21q52 5 97 -24l29 30q-28 20 -71 20zM523 434l-24 -24q47 -5 96 -25l28 28q-39 22 -86 22q-11 0 -14 -1z
" />
    <glyph glyph-name="partialdiff" unicode="&#x2202;" horiz-adv-x="524" 
d="M498 418q2 -188 -75.5 -310.5t-197.5 -119.5q-84 0 -135.5 56t-51.5 148q0 103 64 168t164 65t175 -82q3 35 3 73q0 142 -41.5 220t-119.5 78q-45 0 -92.5 -24t-78.5 -62l-12 12q82 100 194 100q98 0 151 -83.5t53 -238.5zM439 317q-71 88 -167 88q-84 0 -132 -54.5
t-48 -148.5q0 -87 40 -143.5t102 -56.5q75 0 131.5 87.5t73.5 227.5z" />
    <glyph glyph-name="uni2206" unicode="&#x2206;" horiz-adv-x="640" 
d="M283 740l287 -740h-578l287 740h4zM506 18l-243 631l-245 -631h488z" />
    <glyph glyph-name="product" unicode="&#x220f;" horiz-adv-x="714" 
d="M599 708v-768h-52v770h-64h-150h-64v-770h-52v768q-29 -1 -110 -10l12 30h578l12 -30q-81 9 -110 10z" />
    <glyph glyph-name="summation" unicode="&#x2211;" horiz-adv-x="681" 
d="M598 -22h2l-16 -38h-479v4l239 396l-231 384v4h459l12 -38h-2q-76 10 -147 15q-78 5 -165 5h-89l225 -369l-233 -383h104q186 0 321 20z" />
    <glyph glyph-name="minus" unicode="&#x2212;" horiz-adv-x="508" 
d="M67 354l4 20h408l-4 -20h-408z" />
    <glyph glyph-name="uni2215" unicode="&#x2215;" horiz-adv-x="423" 
d="M-77 0l594 728h25l-594 -728h-25z" />
    <glyph glyph-name="uni2219" unicode="&#x2219;" horiz-adv-x="293" 
d="M142 226l-49 63l64 50l50 -63z" />
    <glyph glyph-name="radical" unicode="&#x221a;" horiz-adv-x="504" 
d="M547 713l20 -6l-271 -719h-4l-187 409h-82v16h120l160 -349z" />
    <glyph glyph-name="infinity" unicode="&#x221e;" horiz-adv-x="826" 
d="M803 355q0 -63 -46 -109t-110 -46q-65 0 -115 32t-102 99q-52 -67 -102 -99t-115 -32q-64 0 -110 46t-46 109t46 109t110 46q65 0 115 -32t102 -99q52 67 102 99t115 32q64 0 110 -46t46 -109zM412 356q-57 74 -96.5 103t-102.5 31q-53 0 -91.5 -39.5t-38.5 -95.5
t38.5 -95.5t91.5 -39.5q42 0 76 17q32 16 58 42t65 77zM777 355q0 56 -38.5 95.5t-91.5 39.5q-41 0 -77 -17q-31 -16 -57.5 -42.5t-64.5 -76.5q57 -74 96.5 -103t102.5 -31q53 0 91.5 39.5t38.5 95.5z" />
    <glyph glyph-name="integral" unicode="&#x222b;" horiz-adv-x="291" 
d="M-79 -228v14q60 9 98.5 56t46.5 123l69 663q10 90 53 138t112 48q63 0 119 -35l-6 -12q-47 23 -99 23q-115 0 -132 -170l-68 -655q-8 -81 -58 -131t-135 -62z" />
    <glyph glyph-name="approxequal" unicode="&#x2248;" horiz-adv-x="508" 
d="M269 422q-59 29 -91 29q-55 0 -95 -31l-14 16q47 35 109 35q33 0 101 -31q61 -29 90 -29q55 0 95 31l14 -16q-47 -35 -109 -35q-36 0 -100 31zM269 279q-59 29 -91 29q-55 0 -95 -31l-14 16q47 35 109 35q33 0 101 -31q61 -29 90 -29q55 0 95 31l14 -16q-47 -35 -109 -35
q-36 0 -100 31z" />
    <glyph glyph-name="notequal" unicode="&#x2260;" horiz-adv-x="508" 
d="M477 426h-153l-77 -124h230v-20h-242l-82 -132l-18 12l74 120h-140v20h153l77 124h-230v20h242l82 132l18 -12l-74 -120h140v-20z" />
    <glyph glyph-name="lessequal" unicode="&#x2264;" horiz-adv-x="508" 
d="M446 544l-379 -180l379 -180l-10 -18l-398 189v18l398 189zM38 12v20h408v-20h-408z" />
    <glyph glyph-name="greaterequal" unicode="&#x2265;" horiz-adv-x="508" 
d="M63 562l398 -189v-18l-398 -189l-10 18l379 180l-379 180zM53 12v20h408v-20h-408z" />
    <glyph glyph-name="uni25B4" unicode="&#x25b4;" horiz-adv-x="326" 
d="M40 251l127 227l127 -227h-254z" />
    <glyph glyph-name="uni25B8" unicode="&#x25b8;" horiz-adv-x="331" 
d="M278 237l-227 127l227 128v-255z" />
    <glyph glyph-name="uni25BE" unicode="&#x25be;" horiz-adv-x="325" 
d="M199 251l-127 227h254z" />
    <glyph glyph-name="uni25C2" unicode="&#x25c2;" horiz-adv-x="326" 
d="M88 237v255l227 -128z" />
    <glyph glyph-name="lozenge" unicode="&#x25ca;" horiz-adv-x="506" 
d="M277 740l224 -370l-224 -370h-4l-224 370l224 370h4zM255 64l186 306l-186 306l-186 -306z" />
    <glyph glyph-name="uni2610" unicode="&#x2610;" horiz-adv-x="726" 
d="M127 596h598l-126 -596h-598zM581 20l118 556h-554l-118 -556h554z" />
    <glyph glyph-name="uni2611" unicode="&#x2611;" horiz-adv-x="726" 
d="M340 180q158 232 452 543l18 -13l-489 -590q-49 138 -116 246l41 25q49 -77 94 -211zM568 20l90 428l30 36l-103 -484h-598l127 596h481l-16 -20h-448l-117 -556h554z" />
    <glyph glyph-name="uni2612" unicode="&#x2612;" horiz-adv-x="726" 
d="M127 596h598l-126 -596h-598zM581 20l118 556h-554l-118 -556h554zM584 466l-206 -169l131 -169l-16 -14l-132 169l-206 -169l-12 17l205 168l-131 169l16 14l132 -169l206 169z" />
    <glyph glyph-name="uni2661" unicode="&#x2661;" horiz-adv-x="964" 
d="M953 399q0 -96 -47 -167q-45 -66 -113.5 -114.5t-182.5 -102.5q-133 -64 -190 -164l-14 -6q0 27 -14 50q-12 21 -31.5 39t-67.5 55l-22 17q-78 60 -121 100q-97 92 -97 203q-2 119 82.5 214t197.5 92q148 0 197 -119q42 53 97.5 85.5t115.5 32.5q94 0 152 -60t58 -155z
M901 392q0 90 -49 148t-126 58q-62 0 -121 -50q-57 -48 -86 -120l-10 -3q-12 78 -61.5 125t-125.5 47q-91 2 -155 -85.5t-62 -196.5q0 -65 27 -116q28 -52 66 -89q42 -39 107 -88q1 -1 6 -4.5t12 -9t15 -11.5q61 -44 85 -93q76 76 170 123q107 53 164 92q144 101 144 273z
" />
    <glyph glyph-name="heart" unicode="&#x2665;" horiz-adv-x="964" 
d="M953 399q0 -96 -47 -167q-45 -66 -113.5 -114.5t-182.5 -102.5q-133 -64 -190 -164l-14 -6q0 27 -14 50q-12 21 -31.5 39t-67.5 55l-22 17q-78 60 -121 100q-97 92 -97 203q-2 119 82.5 214t197.5 92q148 0 197 -119q42 53 97.5 85.5t115.5 32.5q94 0 152 -60t58 -155z
" />
    <glyph glyph-name="uni2713" unicode="&#x2713;" horiz-adv-x="726" 
d="M792 723l18 -13l-489 -590q-49 138 -116 246l41 25q49 -77 94 -211q158 232 452 543z" />
    <glyph glyph-name="uni275B" unicode="&#x275b;" horiz-adv-x="287" 
d="M18 159q0 93 77 179t185 120l2 -10q-82 -29 -140.5 -96.5t-58.5 -135.5q0 -57 39 -94.5t99 -37.5l-18 -84q-88 1 -136.5 44.5t-48.5 114.5z" />
    <glyph glyph-name="uni275C" unicode="&#x275c;" horiz-adv-x="284" 
d="M54 270l-2 10q82 29 140 96t58 136q0 57 -39 94.5t-100 37.5l18 84q90 -1 138.5 -44.5t48.5 -114.5q0 -93 -77 -179t-185 -120z" />
    <glyph glyph-name="uni275D" unicode="&#x275d;" horiz-adv-x="521" 
d="M18 159q0 93 77 179t185 120l2 -10q-81 -29 -140.5 -97t-59.5 -136q0 -54 36.5 -91t93.5 -40l-17 -84q-85 3 -131 46.5t-46 112.5zM251 159q0 94 76 180t186 119l2 -10q-82 -29 -140.5 -96.5t-58.5 -135.5q0 -57 39 -94.5t100 -37.5l-17 -84q-91 1 -139 44t-48 115z" />
    <glyph glyph-name="uni275E" unicode="&#x275e;" horiz-adv-x="517" 
d="M54 270l-2 10q82 29 140 96t58 136q0 57 -39 94.5t-100 37.5l18 84q90 -1 138.5 -44.5t48.5 -114.5q0 -93 -77 -179t-185 -120zM286 270l-2 10q81 29 140.5 97t59.5 136q0 54 -36.5 91t-93.5 40l18 84q85 -3 131 -46.5t46 -112.5q0 -93 -77 -179.5t-186 -119.5z" />
    <glyph glyph-name="uni2766" unicode="&#x2766;" horiz-adv-x="1027" 
d="M702 743q-95 -113 -156 -319q98 126 220 126q66 0 107 -38.5t41 -108.5q0 -60 -29 -112q-27 -48 -66.5 -85.5t-113.5 -93.5q-61 -48 -89 -72q-76 -69 -76 -137q0 -41 23.5 -64t63.5 -23q72 0 164 101l10 -4q-121 -151 -264 -151q-109 0 -194 72q-85 70 -133 183t-48 231
q0 122 49.5 205t124.5 83q78 0 124 -97q-56 -191 -56 -317q0 -131 41 -199q-11 46 -11 116q-2 190 65.5 394t178.5 320l-22 9q-92 39 -146.5 55.5t-107.5 16.5q-82 0 -141.5 -41t-59.5 -103q0 -16 8 -43l-47 -16q-10 27 -10 56q0 77 68.5 129t166.5 52q60 0 122.5 -19.5
t161.5 -64.5l26 -12q111 108 246 108q60 0 94.5 -20.5t34.5 -56.5q0 -45 -52 -78.5t-122 -33.5t-196 52zM718 762q124 -55 188 -55q56 0 89.5 29t33.5 66q0 29 -26.5 45.5t-71.5 16.5q-117 0 -213 -102z" />
    <glyph glyph-name="uniFB00" unicode="&#xfb00;" horiz-adv-x="615" 
d="M788 775l-8 -12q-49 24 -101 24q-115 0 -150 -164l-21 -97h164l-17 -22h-151l-114 -531q-18 -84 -78 -136.5t-150 -64.5l-1 12q62 11 105.5 60.5t59.5 126.5l114 533h-230l-113 -531q-18 -84 -78 -136.5t-151 -64.5l-1 12q61 11 105 60.5t61 126.5l114 533h-76l5 22h76
l21 100q20 92 70 139.5t123 47.5q67 0 125 -37l-8 -12q-43 22 -97 22q-117 0 -151 -163l-21 -97h230l22 101q20 92 70 139.5t123 47.5q71 0 129 -39z" />
    <glyph glyph-name="fi" unicode="&#xfb01;" horiz-adv-x="524" 
d="M488 526l26 9h4l-114 -535h-64l108 504h-238l-113 -531q-18 -84 -78 -136.5t-151 -64.5l-1 12q61 11 105 60.5t61 126.5l114 533h-76l5 22h75l22 101q20 92 70 139.5t123 47.5q66 0 124 -36l-8 -13q-47 22 -96 22q-116 0 -151 -164l-21 -97h274zM510 633l-45 59l60 47
l46 -59z" />
    <glyph glyph-name="fl" unicode="&#xfb02;" horiz-adv-x="517" 
d="M566 810h4l-172 -810h-63l162 765q-53 22 -102 22q-125 0 -160 -164l-21 -97h154l-17 -22h-141l-113 -531q-18 -84 -78 -136.5t-151 -64.5l-1 12q61 11 105 60.5t61 126.5l114 533h-76l5 22h75l22 101q20 92 71.5 139.5t129.5 47.5q65 0 130 -35z" />
    <glyph glyph-name="uniFB03" unicode="&#xfb03;" horiz-adv-x="817" 
d="M781 526l27 9h4l-115 -535h-63l107 504h-237l-114 -531q-18 -84 -78 -136.5t-150 -64.5l-1 12q62 11 105.5 60.5t59.5 126.5l114 533h-230l-113 -531q-18 -84 -78 -136.5t-151 -64.5l-1 12q61 11 105 60.5t61 126.5l114 533h-76l5 22h76l21 100q20 92 70 139.5t123 47.5
q67 0 125 -37l-8 -12q-43 22 -97 22q-117 0 -151 -163l-21 -97h230l22 101q20 92 70 139.5t123 47.5q67 0 125 -36l-8 -13q-43 22 -97 22q-115 0 -150 -164l-21 -97h273zM804 633l-46 59l61 47l46 -59z" />
    <glyph glyph-name="uniFEFF" unicode="&#xfeff;" 
 />
    <glyph glyph-name="NULL" 
 />
    <glyph glyph-name="i.latn_TRK" horiz-adv-x="190" 
d="M6 0l110 513l64 22h4l-114 -535h-64zM173 624l-45 59l61 47l45 -59z" />
    <glyph glyph-name="Ldot.latn_CAT" horiz-adv-x="424" 
d="M351 50h2l-27 -50h-308l155 728h69l-152 -710h22q109 0 239 32zM356 342l-49 63l64 50l50 -63z" />
    <glyph glyph-name="ldot.latn_CAT" horiz-adv-x="238" 
d="M6 0l168 787l64 23h4l-172 -810h-64zM234 335l-49 63l64 50l50 -63z" />
    <glyph glyph-name="zero.numr" horiz-adv-x="372" 
d="M84 466q-1 65 22 127t66.5 102.5t96.5 38.5q59 0 93 -43t34 -117q1 -65 -21.5 -127t-66 -102.5t-96.5 -38.5q-59 0 -93.5 43t-34.5 117zM349 597q0 60 -20.5 92.5t-59.5 32.5q-41 2 -74 -44.5t-49 -110t-15 -124.5q0 -60 20.5 -93t59.5 -33q40 -2 73.5 45t49.5 111
t15 124z" />
    <glyph glyph-name="one.numr" horiz-adv-x="179" 
d="M220 734h4l-90 -422h-42l74 350q-20 -12 -71 -27l2 10q65 20 123 89z" />
    <glyph glyph-name="two.numr" horiz-adv-x="295" 
d="M82 344h36q94 0 171 11l-22 -43h-233l1 3l38 34q114 102 165 166.5t51 121.5q0 33 -18 52t-49 19q-59 0 -105 -67l-10 5q50 88 130 88q45 0 73 -26t28 -70q0 -35 -26 -73q-27 -40 -77 -87q-51 -48 -149 -131z" />
    <glyph glyph-name="three.numr" horiz-adv-x="294" 
d="M48 340l13 29q35 -51 89 -51q47 0 77 32.5t30 77.5q0 42 -24.5 65t-75.5 31l-1 10l22 6q45 11 72 41.5t27 69.5q0 27 -18 43t-46 16q-48 0 -93 -47l-9 6q54 65 116 65q44 0 69.5 -21t25.5 -57q0 -39 -28 -68t-72 -44v-2q33 -9 54.5 -37.5t21.5 -64.5q0 -57 -43.5 -95.5
t-105.5 -38.5q-51 0 -101 34z" />
    <glyph glyph-name="four.numr" horiz-adv-x="309" 
d="M331 460l-16 -30h-53l-25 -118h-43l25 118h-172v9l271 294h8l-58 -273h63zM88 460h137l40 193z" />
    <glyph glyph-name="five.numr" horiz-adv-x="284" 
d="M324 694h-158l-34 -112q76 -6 117.5 -40t41.5 -92q0 -63 -43 -103.5t-105 -40.5q-49 0 -98 32l11 27q33 -47 86 -47q48 0 78.5 33.5t30.5 84.5q0 101 -147 109l55 183h181z" />
    <glyph glyph-name="six.numr" horiz-adv-x="315" 
d="M73 434q-2 98 70.5 188t170.5 112l2 -10q-84 -23 -139 -114t-55 -192t69 -101q43 0 67 45q25 46 25 101q0 38 -17 59.5t-48 21.5q-28 0 -56 -20l-5 9q36 30 74 30q44 0 72.5 -30t28.5 -77q0 -63 -42 -106.5t-99 -43.5q-54 0 -86 34.5t-32 93.5z" />
    <glyph glyph-name="seven.numr" horiz-adv-x="266" 
d="M117 728h235v-4l-228 -412h-47l243 383h-58q-106 0 -164 -14z" />
    <glyph glyph-name="eight.numr" horiz-adv-x="314" 
d="M317 427q0 -50 -41 -85.5t-97 -35.5q-49 0 -82.5 25.5t-33.5 65.5q0 44 31.5 79t82.5 50q-55 41 -55 91t34.5 83t85.5 33q42 0 70.5 -24.5t28.5 -59.5q0 -38 -26.5 -68.5t-71.5 -46.5q74 -50 74 -107zM159 632q0 -45 58 -82l14 -9q73 39 73 111q0 31 -17.5 50.5
t-46.5 19.5q-34 0 -57.5 -26.5t-23.5 -63.5zM279 412q0 48 -63 89l-23 14l-6 4q-39 -16 -62 -49.5t-23 -72.5q0 -35 22.5 -57.5t57.5 -22.5q40 0 68 28q29 29 29 67z" />
    <glyph glyph-name="nine.numr" horiz-adv-x="315" 
d="M109 306l-2 10q84 23 139 113.5t55 191.5q0 48 -18 74.5t-51 26.5q-43 0 -68 -46q-25 -44 -25 -99q0 -38 17.5 -59.5t48.5 -21.5q28 0 56 20l5 -9q-36 -30 -74 -30q-45 0 -73.5 30t-28.5 77q0 63 42 106.5t99 43.5q54 0 86 -35t32 -94q2 -99 -70 -188.5t-170 -110.5z" />
    <glyph glyph-name="zero.dnom" horiz-adv-x="372" 
d="M17 154q-1 65 22 127t66.5 102.5t96.5 38.5q59 0 93 -43t34 -117q1 -65 -21.5 -127t-66 -102.5t-96.5 -38.5q-59 0 -93.5 43t-34.5 117zM282 285q0 60 -20.5 92.5t-59.5 32.5q-41 2 -74 -44.5t-49 -110t-15 -124.5q0 -60 20.5 -93t59.5 -33q40 -2 73.5 45t49.5 111
t15 124z" />
    <glyph glyph-name="one.dnom" horiz-adv-x="179" 
d="M153 422h4l-90 -422h-42l74 350q-20 -12 -71 -27l2 10q65 20 123 89z" />
    <glyph glyph-name="two.dnom" horiz-adv-x="295" 
d="M16 32h36q94 0 171 11l-22 -43h-233l1 3l38 34q114 102 165 166.5t51 121.5q0 33 -18 52t-49 19q-59 0 -105 -67l-10 5q50 88 130 88q45 0 73 -26t28 -70q0 -35 -26 -73q-27 -40 -77 -87q-51 -48 -149 -131z" />
    <glyph glyph-name="three.dnom" horiz-adv-x="294" 
d="M-18 28l13 29q35 -51 89 -51q47 0 77 32.5t30 77.5q0 42 -24.5 65t-75.5 31l-1 10l22 6q45 11 72 41.5t27 69.5q0 27 -18 43t-46 16q-48 0 -93 -47l-9 6q54 65 116 65q44 0 69.5 -21t25.5 -57q0 -39 -28 -68t-72 -44v-2q33 -9 54.5 -37.5t21.5 -64.5q0 -57 -43.5 -95.5
t-105.5 -38.5q-51 0 -101 34z" />
    <glyph glyph-name="four.dnom" horiz-adv-x="309" 
d="M266 148l-16 -30h-53l-25 -118h-43l25 118h-172v9l271 294h8l-58 -273h63zM23 148h137l40 193z" />
    <glyph glyph-name="five.dnom" horiz-adv-x="284" 
d="M257 382h-158l-34 -112q76 -6 117.5 -40t41.5 -92q0 -63 -43 -103.5t-105 -40.5q-49 0 -98 32l11 27q33 -47 86 -47q48 0 78.5 33.5t30.5 84.5q0 101 -147 109l55 183h181z" />
    <glyph glyph-name="six.dnom" horiz-adv-x="315" 
d="M6 122q-2 98 70.5 188t170.5 112l2 -10q-84 -23 -139 -114t-55 -192t69 -101q43 0 67 45q25 46 25 101q0 38 -17 59.5t-48 21.5q-28 0 -56 -20l-5 9q36 30 74 30q44 0 72.5 -30t28.5 -77q0 -63 -42 -106.5t-99 -43.5q-54 0 -86 34.5t-32 93.5z" />
    <glyph glyph-name="seven.dnom" horiz-adv-x="266" 
d="M50 416h235v-4l-228 -412h-47l243 383h-58q-106 0 -164 -14z" />
    <glyph glyph-name="eight.dnom" horiz-adv-x="314" 
d="M251 115q0 -50 -41 -85.5t-97 -35.5q-49 0 -82.5 25.5t-33.5 65.5q0 44 31.5 79t82.5 50q-55 41 -55 91t34.5 83t85.5 33q42 0 70.5 -24.5t28.5 -59.5q0 -38 -26.5 -68.5t-71.5 -46.5q74 -50 74 -107zM93 320q0 -45 58 -82l14 -9q73 39 73 111q0 31 -17.5 50.5
t-46.5 19.5q-34 0 -57.5 -26.5t-23.5 -63.5zM213 100q0 48 -63 89l-23 14l-6 4q-39 -16 -62 -49.5t-23 -72.5q0 -35 22.5 -57.5t57.5 -22.5q40 0 68 28q29 29 29 67z" />
    <glyph glyph-name="nine.dnom" horiz-adv-x="315" 
d="M43 -6l-2 10q84 23 139 113.5t55 191.5q0 48 -18 74.5t-51 26.5q-43 0 -68 -46q-25 -44 -25 -99q0 -38 17.5 -59.5t48.5 -21.5q28 0 56 20l5 -9q-36 -30 -74 -30q-45 0 -73.5 30t-28.5 77q0 63 42 106.5t99 43.5q54 0 86 -35t32 -94q2 -99 -70 -188.5t-170 -110.5z" />
    <glyph glyph-name="parenleft.case" horiz-adv-x="240" 
d="M42 207q0 153 75 308q77 155 202 267l12 -8q-106 -95 -179.5 -274t-71.5 -337q0 -132 53 -221l-13 -8q-78 120 -78 273z" />
    <glyph glyph-name="parenright.case" horiz-adv-x="239" 
d="M-40 -66l-12 8q106 95 179.5 274t71.5 337q0 132 -53 221l13 8q78 -120 78 -273q0 -155 -76 -308q-75 -155 -201 -267z" />
    <glyph glyph-name="hyphen.case" horiz-adv-x="321" 
d="M69 352l6 31h215l-6 -31h-215z" />
    <glyph glyph-name="bracketleft.case" horiz-adv-x="241" 
d="M138 358q-21 -102 -47 -197q-23 -92 -60 -215h135l-2 -12h-160l180 848h160l-2 -12h-136q-15 -123 -30 -212q-13 -84 -38 -200z" />
    <glyph glyph-name="bracketright.case" horiz-adv-x="241" 
d="M117 782h160l-180 -848h-160l2 12h136q13 105 29 212q15 92 39 200q19 89 46 197q31 113 61 215h-135z" />
    <glyph glyph-name="braceleft.case" horiz-adv-x="269" 
d="M368 782l-2 -12q-83 0 -124.5 -31t-41.5 -100q0 -9 9 -72q9 -41 9 -66q0 -53 -39 -92t-101 -51q42 -9 66.5 -32.5t24.5 -58.5q0 -25 -10.5 -48.5t-39.5 -72.5q-52 -83 -52 -128q0 -38 30 -55t93 -17l-2 -12q-167 0 -167 93q0 31 12.5 60.5t43.5 79.5q48 73 48 113
q0 33 -22.5 52t-61.5 20l2 12q53 1 89 35t36 84q0 23 -9 64q-10 44 -10 75q0 84 55 122t164 38z" />
    <glyph glyph-name="braceright.case" horiz-adv-x="270" 
d="M269 364l-2 -12q-54 -2 -90 -35q-36 -35 -36 -84q0 -10 2 -24t4.5 -26t2.5 -14q11 -44 11 -75q0 -84 -55.5 -122t-164.5 -38l2 12q84 0 125 30.5t41 100.5q0 9 -9 72q-9 41 -9 66q0 53 39 92t101 51q-42 9 -66 32.5t-24 58.5q0 40 49 121q52 83 52 128q0 38 -30 55
t-93 17l2 12q86 0 126.5 -22.5t40.5 -70.5q0 -31 -12.5 -60.5t-43.5 -79.5q-47 -77 -47 -113q0 -33 22.5 -52t61.5 -20z" />
    <glyph glyph-name="exclamdown.case" horiz-adv-x="204" 
d="M200 748l49 -63l-65 -50l-49 63zM166 530l-82 -530h-74l142 530h14z" />
    <glyph glyph-name="guillemotleft.case" horiz-adv-x="473" 
d="M320 610l-187 -246l84 -234h-12l-143 240l246 240h12zM499 610l-187 -246l85 -234h-12l-144 240l246 240h12z" />
    <glyph glyph-name="uni00AD.case" horiz-adv-x="321" 
d="M69 352l6 31h215l-6 -31h-215z" />
    <glyph glyph-name="periodcentered.case" horiz-adv-x="199" 
d="M118 342l-49 63l64 50l50 -63z" />
    <glyph glyph-name="guillemotright.case" horiz-adv-x="473" 
d="M134 610l143 -240l-246 -240h-12l187 246l-84 234h12zM314 610l143 -240l-246 -240h-12l187 246l-84 234h12z" />
    <glyph glyph-name="questiondown.case" horiz-adv-x="451" 
d="M309 748l49 -63l-65 -50l-49 63zM325 474q0 -33 -22.5 -61.5t-79.5 -75.5q-51 -44 -71 -64q-63 -63 -63 -139q0 -52 34 -83t94 -31q90 0 167 77l11 -9q-47 -47 -95 -73.5t-111 -26.5q-76 0 -125 40t-49 104q0 46 24 87q22 37 53.5 65.5t91.5 71.5q63 47 87 72t24 52
q0 36 -47 36q-4 0 -22 -2l-1 14q22 2 24 2q34 0 55 -14.5t21 -41.5z" />
    <glyph glyph-name="gravecomb.case" 
d="M-155 802l-132 160h98l42 -155z" />
    <glyph glyph-name="acutecomb.case" 
d="M-279 802l-6 5l110 155h98z" />
    <glyph glyph-name="uni0302.case" 
d="M-53 807l-6 -5l-133 97l-182 -97l-6 5l195 155h6z" />
    <glyph glyph-name="tildecomb.case" 
d="M-372 814l-9 2q34 97 102 97q35 0 97 -30q62 -27 85 -27q41 0 70 57l9 -2q-34 -97 -102 -97q-31 0 -96 29q-57 27 -86 27q-41 0 -70 -56z" />
    <glyph glyph-name="uni0304.case" 
d="M-357 821l5 26h310l-5 -26h-310z" />
    <glyph glyph-name="uni0306.case" 
d="M-341 952l9 3q7 -43 42 -70.5t85 -27.5t96 27.5t73 70.5l9 -3q-29 -62 -78 -100t-110 -38q-60 0 -91.5 37.5t-34.5 100.5z" />
    <glyph glyph-name="uni0307.case" 
d="M-208 820l-49 63l65 50l49 -63z" />
    <glyph glyph-name="uni0308.case" 
d="M-301 820l-43 54l56 44l42 -55zM-117 820l-42 54l56 44l42 -55z" />
    <glyph glyph-name="uni030A.case" 
d="M-301 898q0 42 29.5 69.5t71.5 27.5t71.5 -27.5t29.5 -69.5q0 -41 -29.5 -68.5t-71.5 -27.5t-71.5 27.5t-29.5 68.5zM-135 898q0 39 -17 62t-48 23t-48 -23t-17 -62t17 -61.5t48 -22.5t48 22.5t17 61.5z" />
    <glyph glyph-name="uni030B.case" 
d="M-341 802l-6 5l111 155h84zM-216 802l-6 5l112 155h84z" />
    <glyph glyph-name="uni030C.case" 
d="M-26 962l6 -5l-195 -155h-6l-126 155l6 5l133 -97z" />
    <glyph glyph-name="uni0326.case" 
d="M-258 -274l-5 7q71 39 71 102q0 42 -43 73l51 43q46 -25 46 -77q0 -42 -33 -82.5t-87 -65.5z" />
    <glyph glyph-name="uni0327.case" 
d="M-124 -130q0 -38 -30.5 -62.5t-75.5 -24.5q-41 0 -85 21l5 9q24 -15 66 -15q33 0 56 16t23 40q0 19 -19.5 33t-49.5 15l-24 1l65 97h20l-37 -55q41 -6 63.5 -26.5t22.5 -48.5z" />
    <glyph glyph-name="uni0328.case" 
d="M-302 -160q0 40 32.5 75t107.5 86h15q-99 -85 -99 -146q0 -21 13 -33t35 -12q24 0 63 14l3 -5q-58 -36 -106 -36q-30 0 -47 15.5t-17 41.5z" />
    <glyph glyph-name="endash.case" horiz-adv-x="478" 
d="M64 371l4 18h390l-4 -18h-390z" />
    <glyph glyph-name="emdash.case" horiz-adv-x="768" 
d="M64 371l4 18h680l-4 -18h-680z" />
    <glyph glyph-name="bullet.case" horiz-adv-x="303" 
d="M167 309l-79 100l102 80l79 -100z" />
    <glyph glyph-name="guilsinglleft.case" horiz-adv-x="295" 
d="M316 595l-187 -246l84 -234h-12l-143 240l246 240h12z" />
    <glyph glyph-name="guilsinglright.case" horiz-adv-x="294" 
d="M132 595l143 -240l-246 -240h-12l187 246l-84 234h12z" />
    <glyph glyph-name="A_A" horiz-adv-x="940" 
d="M772 241h-279l-25 -44l30 -197h-70l-36 241h-278q-84 -155 -113 -241h-53q25 40 146 246l42 72l245 423h3l79 -513l297 513h3l114 -741h-69zM769 259l-54 365l-212 -365h266zM124 259h265l-54 364l-181 -312z" />
    <glyph glyph-name="A_N_D" horiz-adv-x="867" 
d="M45 197h-36q12 18 56 94l30 50l112 192h7l54 -336h-40l-17 107h-119q-32 -57 -47 -107zM311 197h-27q19 59 36 143l33 154l-13 29v3h46l111 -248l23 104q19 84 25 144h30q-19 -62 -36 -144l-41 -191h-7l-127 279l-28 -130q-20 -98 -25 -143zM852 403q0 -89 -58 -147.5
t-149 -58.5h-104l70 329h105q62 0 99 -33t37 -90zM808 403q0 50 -27 80.5t-71 30.5h-61l-64 -303q19 -3 67 -3q69 0 112.5 58.5t43.5 136.5zM185 464l-73 -125l-13 -22h110zM16 116l3 14h744l-3 -14h-744z" />
    <glyph glyph-name="C_A" horiz-adv-x="1160" 
d="M1029 0l-36 241h-278q-54 -97 -73 -139q-22 -46 -41 -102h-50l89 149q-60 -71 -137 -116t-153 -45q-129 0 -210 85t-81 226q-1 116 47.5 218.5t137 163.5t194.5 59q86 0 153.5 -37.5t104.5 -102.5l-44 -32q-31 75 -86.5 115.5t-127.5 40.5q-85 2 -157 -59.5
t-110.5 -156.5t-36.5 -196q0 -132 66.5 -210.5t177.5 -78.5q77 -2 173 66t142 156l288 496h3l114 -741h-69zM725 259h265l-55 364l-180 -312z" />
    <glyph glyph-name="C_O_period" horiz-adv-x="1065" 
d="M59 299q-1 116 47.5 218.5t137 163.5t194.5 59q86 0 153.5 -37.5t104.5 -102.5l-44 -32q-31 75 -86.5 115.5t-127.5 40.5q-85 2 -157 -59.5t-110.5 -156.5t-36.5 -196q0 -132 66.5 -211t177.5 -79q142 0 242 126l11 -8q-118 -152 -281 -152q-129 0 -210 85t-81 226z
M700 308q0 90 58.5 157t142.5 67q69 0 111.5 -44t42.5 -113q2 -89 -58.5 -157.5t-143.5 -66.5q-68 0 -110.5 44t-42.5 113zM1007 381q0 61 -29.5 99.5t-77.5 38.5q-64 2 -109 -66.5t-43 -150.5q0 -61 29.5 -99.5t77.5 -38.5q64 -2 109 66.5t43 150.5zM807 -20l-48 61l63 49
l48 -61z" />
    <glyph glyph-name="D_O" horiz-adv-x="1149" 
d="M1134 428q2 -114 -50 -216t-145 -164t-201 -60q-136 0 -217 86q-107 -74 -249 -74h-254l155 728h244q121 0 197 -61q97 73 217 73q133 0 218 -86t85 -226zM1060 438q0 129 -63.5 207.5t-170.5 78.5t-190 -77q69 -72 69 -185t-40 -206.5t-113 -157.5q70 -94 190 -94
q89 -2 164 62t115.5 164.5t38.5 207.5zM500 100q-61 80 -61 200q0 99 37.5 188t104.5 152q-63 72 -179 72h-163l-146 -687q45 -9 186 -9q127 0 221 84zM531 132q111 130 111 328q0 86 -39 151q-51 -62 -79.5 -146t-28.5 -172q0 -91 36 -161z" />
    <glyph glyph-name="D_O_G" horiz-adv-x="1520" 
d="M1260 312l-10 18h243l-58 -272q-104 -70 -242 -70q-140 0 -227 76q-100 -76 -224 -76q-135 0 -220 87q-106 -75 -250 -75h-254l155 728h244q120 0 197 -61q97 73 220 73q126 0 209 -75q99 75 222 75q86 0 152.5 -36.5t103.5 -102.5l-43 -33q-31 74 -87.5 115t-129.5 41
q-110 0 -194 -84q72 -82 72 -211q0 -98 -37.5 -187t-104.5 -152q69 -86 197 -86q94 0 175 54l53 254h-162zM748 4q110 0 196 81q-73 82 -73 208q0 101 38 193t105 155q-69 83 -185 83q-108 0 -192 -78q68 -70 68 -184q0 -231 -152 -363q70 -95 195 -95zM500 101
q-61 79 -61 199q0 99 37.5 188t104.5 152q-66 72 -179 72h-163l-146 -687q45 -9 186 -9q128 0 221 85zM532 133q110 129 110 327q0 86 -39 151q-51 -62 -79.5 -145t-28.5 -171q0 -94 37 -162zM1082 433q0 101 -44 175q-49 -63 -76.5 -147t-27.5 -173q0 -97 42 -169
q106 131 106 314z" />
    <glyph glyph-name="D_O_O" horiz-adv-x="1581" 
d="M1567 428q2 -114 -50 -216t-145 -164t-201 -60q-125 0 -206 75q-99 -75 -223 -75q-135 0 -220 87q-106 -75 -250 -75h-254l155 728h244q122 0 197 -61q98 73 221 73q125 0 208 -75q98 75 221 75q133 0 218 -86t85 -226zM748 4q112 0 195 82q-72 86 -72 214q0 98 37 186.5
t104 151.5q-68 86 -182 86q-108 0 -193 -78q68 -70 68 -184q0 -113 -39.5 -206t-111.5 -156q69 -96 194 -96zM1492 438q0 129 -63.5 207.5t-170.5 78.5q-108 0 -193 -81q74 -82 74 -214q0 -99 -38 -189t-107 -153q70 -83 181 -83q89 -2 164 62t115 164t38 208zM500 101
q-61 79 -61 199q0 99 37.5 188t104.5 152q-66 72 -179 72h-163l-146 -687q45 -9 186 -9q128 0 221 85zM532 134q110 125 110 326q0 88 -39 150q-51 -61 -79 -143.5t-28 -171.5q0 -92 36 -161zM972 119q48 60 74.5 142.5t26.5 171.5q0 103 -41 174q-49 -61 -76.5 -144
t-27.5 -170q0 -100 44 -174z" />
    <glyph glyph-name="E_A" horiz-adv-x="981" 
d="M850 0l-36 241h-279l-139 -241h-378l155 728h377l1 -46h-2q-122 28 -252 28h-59l-68 -322h54q141 0 199 11h1l-8 -42h-2q-59 13 -194 13h-54l-74 -352h58q156 0 253 36l399 687h3l114 -741h-69zM546 259h265l-55 364z" />
    <glyph glyph-name="E_T" horiz-adv-x="973" 
d="M173 728h377l1 -46h-2q-122 28 -252 28h-59l-68 -322h54q141 0 199 11h1l-8 -42h-2q-59 13 -194 13h-54l-74 -352h58q152 0 282 30h2l-26 -48h-390zM1050 728l1 -49h-2q-97 31 -181 31h-24l-150 -710h-69l150 710h-23q-89 0 -192 -28h-2l22 46h470z" />
    <glyph glyph-name="E_V" horiz-adv-x="987" 
d="M1029 728h53q-70 -115 -174 -292l-15 -26l-245 -423h-3l-107 697q-48 26 -241 26h-59l-68 -322h54q141 0 199 11h1l-8 -42h-2q-59 13 -194 13h-54l-74 -352h58q152 0 282 30h2l-26 -48h-390l155 728h427l94 -623l180 313q68 118 102 186q32 63 53 124z" />
    <glyph glyph-name="E_V_T" horiz-adv-x="1440" 
d="M1517 728l1 -49h-2q-97 31 -181 31h-24l-150 -710h-69l150 710h-25q-126 0 -167 -28l-402 -695h-3l-107 697q-48 26 -241 26h-59l-68 -322h54q141 0 199 11h1l-8 -42h-2q-59 13 -194 13h-54l-74 -352h58q152 0 282 30h2l-26 -48h-390l155 728h427l94 -623l180 313
q65 111 103 186q38 77 55 124h485z" />
    <glyph glyph-name="E_W" horiz-adv-x="1307" 
d="M1349 728h49q-69 -123 -171 -319l-223 -422h-3l-62 605l-321 -605h-4l-69 695q-47 28 -248 28h-59l-68 -322h54q141 0 199 11h1l-8 -42h-2q-59 13 -194 13h-54l-74 -352h58q152 0 282 30h2l-26 -48h-390l155 728h436l59 -606l322 606h4l60 -605l154 293q104 196 141 312z
" />
    <glyph glyph-name="E_X" horiz-adv-x="995" 
d="M834 463l-57 -65l161 -315l-21 -98h-5l-187 364l-300 -349h-407l155 728h330l4 -46h-2q-85 19 -114 22q-38 6 -94 6h-59l-68 -322h54q141 0 199 11h1l-8 -42h-2q-59 13 -194 13h-54l-74 -352h58q74 0 156 9t141 27l269 313l-185 361h77l160 -312l50 58q139 159 193 254
h64q-94 -95 -241 -265z" />
    <glyph glyph-name="E_X_A" horiz-adv-x="1510" 
d="M1379 0l-36 241h-278l-148 -256h-5l-187 364l-300 -349h-407l155 728h330l4 -46h-2q-85 19 -114 22q-38 6 -94 6h-59l-68 -322h54q141 0 199 11h1l-8 -42h-2q-59 13 -194 13h-54l-74 -352h58q74 0 156 9t141 27l269 313l-185 361h77l160 -312l50 58q139 159 193 254h64
q-94 -95 -241 -265l-57 -65l166 -325l388 668h3l114 -741h-69zM1075 259h265l-55 364z" />
    <glyph glyph-name="E_X_T" horiz-adv-x="1398" 
d="M1475 728l1 -49h-2q-97 31 -180 31h-25l-150 -710h-68l150 710h-25q-98 0 -150 -28l-249 -284l161 -315l-21 -98h-5l-187 364l-300 -349h-407l155 728h330l4 -46h-2q-85 19 -114 22q-38 6 -94 6h-59l-68 -322h54q141 0 199 11h1l-8 -42h-2q-59 13 -194 13h-54l-74 -352
h58q74 0 156 9t141 27l269 313l-185 361h77l160 -312l50 58q160 184 205 254h452z" />
    <glyph glyph-name="E_Y" horiz-adv-x="927" 
d="M788 431l-79 -106l-69 -325h-68l70 331l-117 359q-57 20 -228 20h-59l-68 -322h54q141 0 199 11h1l-8 -42h-2q-59 13 -194 13h-54l-74 -352h58q152 0 282 30h2l-26 -48h-390l155 728h412l120 -380l69 92q131 173 188 288h50q-85 -110 -224 -297z" />
    <glyph glyph-name="F_T" horiz-adv-x="957" 
d="M173 728h359l2 -46h-2q-125 28 -253 28h-41l-71 -334h45q143 0 198 11h2l-9 -42h-1q-56 13 -194 13h-45l-76 -358h-69zM1033 728l1 -49h-2q-96 31 -180 31h-24l-150 -710h-69l150 710h-23q-89 0 -192 -28h-2l21 46h470z" />
    <glyph glyph-name="F_V" horiz-adv-x="935" 
d="M977 728h53q-84 -136 -189 -318l-245 -423h-3l-107 698q-50 25 -207 25h-41l-71 -334h45q143 0 198 11h2l-9 -42h-1q-56 13 -194 13h-45l-76 -358h-69l155 728h375l94 -623l180 313q68 118 102 186q32 63 53 124z" />
    <glyph glyph-name="F_W" horiz-adv-x="1250" 
d="M1292 728h48q-107 -196 -171 -319l-222 -422h-4l-61 606l-322 -606h-4l-69 697q-49 26 -208 26h-41l-71 -334h45q143 0 198 11h2l-9 -42h-1q-56 13 -194 13h-45l-76 -358h-69l155 728h378l59 -605l322 605h4l61 -603l153 291q98 183 142 312z" />
    <glyph glyph-name="F_Y" horiz-adv-x="888" 
d="M749 431l-79 -106l-69 -325h-69l71 331l-117 354q-49 25 -207 25h-41l-71 -334h45q143 0 198 11h2l-9 -42h-1q-56 13 -194 13h-45l-76 -358h-69l155 728h373l119 -381l70 93q131 173 188 288h50q-64 -82 -224 -297z" />
    <glyph glyph-name="K_A" horiz-adv-x="1069" 
d="M938 0l-36 241h-278l-148 -256h-5l-270 388l162 136q158 132 232 219h65v-2q-108 -84 -224 -183l-61 -50l-111 -93l234 -333l392 674h3l114 -741h-69zM173 728h68l-154 -728h-69zM634 259h265l-55 364z" />
    <glyph glyph-name="K_AE" horiz-adv-x="1351" 
d="M173 728h68l-154 -728h-69zM1153 710h-59l-68 -322h53q144 0 199 11h2l-9 -42h-2q-56 13 -193 13h-54l-74 -352h58q152 0 282 30h2l-26 -48h-389l55 262h-243l-211 -277h-5l-270 388l162 136q158 132 232 219h65v-2q-108 -84 -224 -183l-61 -50l-111 -93l242 -344
l513 672h386l2 -46h-2q-125 28 -252 28zM701 280h233l90 422z" />
    <glyph glyph-name="K_S" horiz-adv-x="1032" 
d="M1042 671l-18 -43q-32 43 -79 69.5t-99 26.5q-67 0 -111 -42t-44 -103q0 -34 16 -60q15 -24 35 -42t67 -53l42 -31l16 -12q38 -27 64 -51q56 -49 56 -125q0 -93 -69 -155t-168 -62q-129 0 -202 41l12 52q29 -37 82.5 -57t114.5 -20q74 0 124 48t50 116q0 38 -17 67
q-17 30 -38 46q-14 13 -65 52l-41 30l-50 36q-87 63 -87 151q0 81 63.5 135.5t154.5 54.5q52 0 104.5 -20t86.5 -49zM173 728h68l-154 -728h-69zM375 493l-110 -92l267 -332l-18 -84h-5l-308 388l162 136q158 132 232 219h65v-2q-108 -84 -224 -183z" />
    <glyph glyph-name="K_T" horiz-adv-x="980" 
d="M173 728h68l-154 -728h-69zM1056 728l1 -49h-2q-97 31 -180 31h-25l-150 -710h-68l150 710h-25q-85 0 -157 -28l-335 -282l254 -331l-18 -84h-5l-295 388l162 136q154 128 239 219h454z" />
    <glyph glyph-name="L_A" horiz-adv-x="917" 
d="M786 0l-36 241h-278l-139 -241h-315l155 728h69l-152 -710h22q120 0 227 36l399 687h3l114 -741h-69zM482 259h265l-55 364z" />
    <glyph glyph-name="L_AE" horiz-adv-x="1195" 
d="M996 710h-59l-68 -322h53q144 0 199 11h2l-9 -42h-2q-56 13 -193 13h-54l-74 -352h58q151 0 282 30h2l-26 -48h-389l55 262h-242l-199 -262h-314l155 728h69l-152 -710h22q126 0 236 36l514 674h387l1 -46h-2q-122 28 -252 28zM545 280h232l90 422z" />
    <glyph glyph-name="L_L" horiz-adv-x="746" 
d="M330 50h2l-27 -50h-287l155 728h69l-152 -710h2q108 0 238 32zM690 50h2l-27 -50h-307l154 728h69l-152 -710h22q105 0 239 32z" />
    <glyph glyph-name="L_S" horiz-adv-x="837" 
d="M846 671l-18 -43q-30 43 -78 69.5t-100 26.5q-67 0 -111 -42t-44 -103q0 -34 16 -60q15 -24 35 -42t67 -53l42 -31l16 -12q38 -27 64 -51q56 -49 56 -125q0 -93 -69 -155t-168 -62q-55 0 -115 21q-64 25 -100 50l22 47q31 -45 86 -73q58 -29 114 -29q74 0 124 48t50 116
q0 38 -17 67t-37 46q-36 31 -65 52l-42 30l-49 35q-87 64 -87 152q0 81 62.5 135.5t154.5 54.5q52 0 104.5 -20t86.5 -49zM337 56h2l-26 -56h-295l155 728h69l-152 -710h24q79 0 223 38z" />
    <glyph glyph-name="M_C_period" horiz-adv-x="1131" 
d="M381 158l336 570h62l-91 -728h-69l84 667l-366 -621h-4l-121 604l-100 -330q-57 -180 -82 -320h-46q40 100 108 321l112 369l-7 35v3h71zM852 313q0 -63 28.5 -99.5t80.5 -36.5q74 0 125 63l10 -8q-64 -81 -153 -81q-65 0 -101.5 43t-36.5 114q0 92 57 158t141 66
q89 0 129 -66l-30 -23q-30 76 -98 76q-62 0 -107 -64t-45 -142zM856 41l62 49l49 -61l-63 -49z" />
    <glyph glyph-name="N_period" horiz-adv-x="306" 
d="M250 706q0 37 -38 63l44 37q40 -22 40 -63q0 -33 -28.5 -66.5t-73.5 -54.5l-4 5q60 34 60 79zM289 526h33q-19 -51 -38 -144l-40 -190h-5l-128 281l-28 -132q-20 -96 -22 -144h-33q20 53 39 144l33 156l-12 26v3h44l113 -250l23 106q20 87 21 144zM140 2q0 -34 -28 -67
t-74 -54l-4 5q60 34 60 79q0 34 -38 63l45 37q39 -23 39 -63z" />
    <glyph glyph-name="O_C" horiz-adv-x="1089" 
d="M864 724q-102 0 -185 -80q74 -82 74 -215q0 -95 -34.5 -181t-97.5 -149q71 -77 182 -77q143 0 243 126l11 -8q-118 -152 -281 -152q-120 0 -199 73q-97 -73 -217 -73q-134 0 -218 86t-84 226q-2 116 50 218t144.5 163t200.5 59q121 0 201 -71q94 71 210 71
q86 0 153.5 -37.5t104.5 -102.5l-44 -32q-31 75 -86.5 115.5t-127.5 40.5zM366 4q108 0 191 79q-71 85 -71 215q0 102 37.5 193t103.5 154q-68 79 -177 79q-89 2 -164 -62t-115.5 -164.5t-38.5 -207.5q0 -129 63.5 -207.5t170.5 -78.5zM697 435q0 102 -46 178
q-48 -59 -75 -138t-27 -161q0 -109 50 -185q98 129 98 306z" />
    <glyph glyph-name="O_F" horiz-adv-x="614" 
d="M58 332q0 81 55 140.5t132 59.5q63 0 103 -40.5t40 -103.5q0 -81 -53.5 -139t-131.5 -58q-64 0 -104.5 39.5t-40.5 101.5zM516 512h-16l-31 -144h9q70 0 100 5h2l-5 -25h-2q-24 6 -98 6h-9l-33 -157h-41l70 329h171l1 -27h-2q-65 13 -116 13zM102 328q0 -56 28.5 -90.5
t74.5 -34.5q60 0 99.5 59t39.5 131q0 58 -27 92.5t-74 34.5q-60 2 -101 -59.5t-40 -132.5zM44 116l3 14h477l-3 -14h-477z" />
    <glyph glyph-name="O_G" horiz-adv-x="1134" 
d="M875 312l-11 18h244l-58 -272q-108 -70 -243 -70q-139 0 -226 76q-97 -76 -221 -76q-134 0 -218 86t-84 226q-2 116 50 218t144.5 163t200.5 59q123 0 206 -75q97 75 221 75q86 0 152.5 -36.5t102.5 -102.5l-42 -33q-33 75 -88.5 115.5t-129.5 40.5q-109 0 -193 -84
q71 -84 71 -211q0 -98 -37.5 -187t-103.5 -152q69 -86 197 -86q93 0 175 55l53 253h-162zM366 4q110 0 193 81q-73 82 -73 208q0 102 38 193.5t106 154.5q-69 83 -180 83q-89 2 -164 -62t-115.5 -164.5t-38.5 -207.5q0 -129 63.5 -207.5t170.5 -78.5zM697 435q0 100 -44 173
q-49 -63 -76.5 -147t-27.5 -173q0 -97 42 -169q50 62 78 145t28 171z" />
    <glyph glyph-name="O_O" horiz-adv-x="1196" 
d="M1181 428q2 -114 -50 -216t-145 -164t-201 -60q-124 0 -205 75q-99 -75 -220 -75q-134 0 -218 86t-84 226q-2 116 50 218t144.5 163t200.5 59q125 0 205 -74q101 74 220 74q133 0 218 -86t85 -226zM366 4q108 0 193 81q-73 82 -73 215q0 101 38 190.5t106 151.5
q-68 82 -180 82q-89 2 -164 -62t-115.5 -164.5t-38.5 -207.5q0 -129 63.5 -207.5t170.5 -78.5zM1107 438q0 129 -63.5 207.5t-170.5 78.5q-110 0 -193 -81q73 -85 73 -214q0 -99 -38 -189t-107 -153q69 -83 181 -83q89 -2 164 62t115.5 164.5t38.5 207.5zM588 115
q52 62 80.5 146.5t28.5 173.5q0 103 -46 177q-52 -61 -80.5 -145t-28.5 -174q0 -102 46 -178z" />
    <glyph glyph-name="O_O_C" horiz-adv-x="1521" 
d="M1297 724q-103 0 -186 -80q75 -86 75 -215q0 -95 -34.5 -181t-97.5 -148q70 -78 182 -78q143 0 243 126l11 -8q-118 -152 -282 -152q-120 0 -199 73q-97 -73 -220 -73q-125 0 -208 75q-99 -75 -221 -75q-134 0 -218 86t-84 226q-2 116 50 218t144.5 163t200.5 59
q123 0 206 -75q99 75 223 75q121 0 204 -71q94 71 211 71q86 0 153 -37.5t104 -102.5l-43 -32q-31 74 -86.5 115t-127.5 41zM366 4q108 0 194 81q-74 86 -74 215q0 101 38 190.5t106 150.5q-69 83 -180 83q-89 2 -164 -62t-115.5 -164.5t-38.5 -207.5q0 -129 63.5 -207.5
t170.5 -78.5zM795 4q109 0 194 79q-71 85 -71 215q0 102 37 193.5t103 153.5q-68 79 -181 79q-110 0 -197 -81q73 -85 73 -214q0 -98 -38 -188t-105 -153q70 -84 185 -84zM589 117q51 61 79.5 145t28.5 173q0 104 -46 177q-51 -62 -79.5 -145.5t-28.5 -171.5q0 -107 46 -178
zM1129 433q0 103 -46 179q-48 -59 -74.5 -138t-26.5 -160q0 -109 49 -185q98 126 98 304z" />
    <glyph glyph-name="O_O_G" horiz-adv-x="1567" 
d="M1307 312l-10 18h243l-57 -272q-108 -70 -243 -70q-140 0 -227 76q-98 -76 -224 -76q-125 0 -208 75q-99 -75 -221 -75q-134 0 -218 86t-84 226q-2 116 50 218t144.5 163t200.5 59q123 0 206 -75q99 75 223 75q123 0 209 -75q97 75 221 75q86 0 153 -36.5t103 -102.5
l-43 -33q-31 74 -87.5 115t-129.5 41q-110 0 -194 -84q72 -82 72 -211q0 -98 -37.5 -187t-104.5 -152q69 -86 197 -86q94 0 175 54l53 254h-162zM366 4q108 0 194 81q-74 86 -74 215q0 101 38 190.5t106 150.5q-69 83 -180 83q-89 2 -164 -62t-115.5 -164.5t-38.5 -207.5
q0 -129 63.5 -207.5t170.5 -78.5zM795 4q110 0 196 81q-73 82 -73 208q0 102 38 193.5t106 153.5q-71 84 -185 84q-110 0 -197 -81q73 -85 73 -214q0 -98 -38 -188t-105 -153q70 -84 185 -84zM589 117q51 61 79.5 145t28.5 173q0 104 -46 177q-51 -62 -79.5 -145.5
t-28.5 -171.5q0 -107 46 -178zM1129 433q0 100 -44 174q-103 -132 -103 -319q0 -100 41 -168q50 61 78 143t28 170z" />
    <glyph glyph-name="R_A" horiz-adv-x="1035" 
d="M903 0l-36 241h-278l-148 -256h-3l-153 320q-6 14 -15.5 18.5t-32.5 4.5h-80l-70 -328h-69l155 728h127q119 0 183.5 -44t64.5 -120q0 -166 -210 -222l129 -269l388 668h3l114 -741h-69zM476 558q0 154 -187 154h-50l-78 -361q35 -7 91 -7q93 0 158.5 61.5t65.5 152.5z
M599 259h265l-54 365z" />
    <glyph glyph-name="R_S" horiz-adv-x="1014" 
d="M1023 671l-18 -43q-32 43 -79 69.5t-99 26.5q-67 0 -111 -42t-44 -103q0 -34 16 -60q15 -24 35 -42t67 -53l42 -31l16 -12q38 -27 64 -51q56 -49 56 -125q0 -93 -69 -155t-168 -62q-129 0 -202 41l12 52q29 -37 82.5 -57t114.5 -20q74 0 124 48t50 116q0 38 -17 67
t-37 46q-36 31 -65 52l-42 30l-50 36q-87 63 -87 151q0 81 63.5 135.5t154.5 54.5q52 0 104.5 -20t86.5 -49zM339 343l160 -270l-18 -88h-4l-192 320q-8 14 -17 18.5t-31 4.5h-80l-70 -328h-69l155 728h127q119 0 183.5 -44t64.5 -120q0 -168 -209 -221zM476 558
q0 154 -187 154h-50l-78 -361q35 -7 91 -7q93 0 158.5 61.5t65.5 152.5z" />
    <glyph glyph-name="S_S" horiz-adv-x="899" 
d="M3 58l22 48q31 -45 86 -73q58 -29 114 -29q74 0 124 48t50 116q0 38 -17 67t-37 46q-36 31 -65 52l-42 30l-50 36q-87 63 -87 151q0 81 63.5 135.5t154.5 54.5q90 0 167 -51l-16 -35q-70 70 -156 70q-67 0 -111 -42t-44 -103q0 -34 16 -60q15 -24 35 -42t67 -53l42 -31
l16 -12q38 -27 64 -51q56 -49 56 -125q0 -93 -69 -155t-168 -62q-52 0 -111 20t-104 50zM434 39l18 34q34 -31 80.5 -50t91.5 -19q74 0 124 48t50 116q0 38 -17 67q-17 30 -38 46q-14 13 -65 52l-41 30l-50 36q-87 63 -87 151q0 81 63.5 135.5t154.5 54.5q52 0 104.5 -20
t86.5 -49l-18 -43q-32 43 -79 69.5t-99 26.5q-67 0 -111 -42t-44 -103q0 -34 16 -60q15 -24 35 -42t67 -53l42 -31l16 -12q38 -27 64 -51q56 -49 56 -125q0 -93 -69 -155t-168 -62q-86 0 -183 51z" />
    <glyph glyph-name="S_T_period" horiz-adv-x="766" 
d="M510 671l-18 -43q-32 43 -79 69.5t-99 26.5q-67 0 -111 -42t-44 -103q0 -34 16 -60q15 -24 35 -42t67 -53l42 -31l16 -12q38 -27 64 -51q56 -49 56 -125q0 -93 -69 -155t-168 -62q-52 0 -111 20t-104 50l22 48q31 -45 86 -73q58 -29 114 -29q74 0 124 48t50 116
q0 38 -17 67t-37 46q-36 31 -65 52l-42 30l-50 36q-87 63 -87 151q0 81 63.5 135.5t154.5 54.5q52 0 104.5 -20t86.5 -49zM789 526l3 -32h-2q-29 10 -51 13q-16 4 -51 4h-9l-75 -354h-49l75 354h-7q-35 0 -54 -4q-24 -4 -56 -13h-2l17 32h261zM499 41l63 49l48 -61l-63 -49z
" />
    <glyph glyph-name="T_H_E" horiz-adv-x="787" 
d="M76 498h-2l12 28h223l1 -28h-2q-42 15 -85 15h-8l-68 -316h-40l68 316h-10q-41 0 -89 -15zM310 197h-41l70 329h41l-32 -152h150l33 152h40l-70 -329h-41l36 165h-151zM663 512h-12l-29 -137h12q69 0 101 5h2l-5 -25h-2q-24 6 -98 6h-13l-32 -150h13q76 0 138 13h2
l-14 -27h-183l71 329h176l1 -27h-2q-59 13 -126 13zM26 116l3 14h682l-3 -14h-682z" />
    <glyph glyph-name="T_T" horiz-adv-x="858" 
d="M935 728l1 -49h-2q-97 31 -180 31h-25l-150 -710h-68l150 710h-277l-150 -710h-69l150 710h-23q-83 0 -194 -31h-2l22 49h817z" />
    <glyph glyph-name="T_V" horiz-adv-x="1022" 
d="M1065 728h52q-70 -115 -174 -292l-15 -26l-245 -423h-3l-105 692q-38 31 -165 31h-26l-150 -710h-69l150 710h-23q-83 0 -194 -31h-2l22 49h517l94 -622l180 312q65 111 103 186q32 63 53 124z" />
    <glyph glyph-name="T_W" horiz-adv-x="1342" 
d="M1384 728h48q-107 -196 -171 -319l-222 -422h-4l-61 606l-322 -606h-4l-68 692q-38 31 -170 31h-26l-150 -710h-69l150 710h-23q-83 0 -194 -31h-2l22 49h525l59 -605l322 605h4l61 -603l153 291q98 183 142 312z" />
    <glyph glyph-name="T_Y" horiz-adv-x="974" 
d="M835 431l-80 -106l-68 -325h-69l71 331l-114 348q-40 31 -165 31h-26l-150 -710h-69l150 710h-23q-83 0 -194 -31h-2l22 49h514l119 -381l69 93q130 176 189 288h50q-96 -124 -224 -297z" />
    <glyph glyph-name="T_Y_T" horiz-adv-x="1414" 
d="M1490 728l1 -49h-2q-97 31 -180 31h-25l-150 -710h-68l150 710h-25q-125 0 -168 -28l-268 -357l-68 -325h-69l71 331l-114 348q-40 31 -165 31h-26l-150 -710h-69l150 710h-23q-83 0 -194 -31h-2l22 49h514l119 -381l69 93q135 180 195 288h475z" />
    <glyph glyph-name="U_T" horiz-adv-x="1033" 
d="M1110 728l1 -49h-2q-97 31 -180 31h-25l-150 -710h-68l150 710h-25q-125 0 -186 -31l-92 -434q-28 -129 -94.5 -193t-178.5 -64q-97 0 -150 50.5t-53 141.5q0 36 9 76l100 472h69l-100 -469q-9 -42 -9 -79q0 -79 41.5 -122t118.5 -43q176 0 226 225l104 488h494z" />
    <glyph glyph-name="V_S" horiz-adv-x="527" 
d="M364 456q0 -20 11.5 -33t40.5 -33l18 -13q36 -23 50 -40.5t14 -44.5q0 -43 -32 -72t-78 -29q-58 0 -101 34l14 28q11 -22 36.5 -36t53.5 -14q32 0 53.5 21t21.5 51q0 23 -11.5 37.5t-40.5 33.5l-18 12q-34 23 -49 41t-15 44q0 37 29.5 63t71.5 26q55 0 90 -33l-12 -26
q-27 47 -80 47q-28 0 -47.5 -18.5t-19.5 -45.5zM140 190h-6l-54 336h41l42 -269l74 127q49 86 67 142h34q-54 -91 -85 -144zM32 116l3 14h402l-3 -14h-402z" />
    <glyph glyph-name="V_T" horiz-adv-x="1014" 
d="M1091 728l1 -49h-2q-97 31 -180 31h-25l-150 -710h-68l150 710h-25q-125 0 -168 -28l-402 -695h-3l-114 741h69l94 -622l180 312q65 111 103 186q38 77 55 124h485z" />
    <glyph glyph-name="W_T" horiz-adv-x="1327" 
d="M1404 728l1 -49h-2q-97 31 -181 31h-24l-150 -710h-69l150 710h-25q-126 0 -167 -28l-365 -695h-3l-62 605l-322 -605h-4l-74 741h69l59 -605l323 605h4l60 -604l153 292q102 195 143 312h486z" />
    <glyph glyph-name="X_A" horiz-adv-x="1074" 
d="M942 0l-36 241h-278l-147 -256h-5l-187 364l-83 -96q-122 -141 -185 -253h-72q85 86 243 264l88 103l-185 361h77l160 -312l50 58q139 159 193 254h64q-94 -94 -241 -265l-57 -65l166 -325l388 668h3l114 -741h-70zM639 259h264l-54 365z" />
    <glyph glyph-name="X_T" horiz-adv-x="962" 
d="M1038 728l2 -49h-2q-97 31 -181 31h-24l-150 -710h-69l150 710h-25q-98 0 -150 -28l-248 -284l160 -315l-20 -98h-5l-187 364l-83 -96q-122 -141 -185 -253h-72q85 86 243 264l88 103l-185 361h77l159 -312l51 58q165 190 204 254h452z" />
    <glyph glyph-name="Y_T" horiz-adv-x="970" 
d="M1046 728l2 -49h-2q-97 31 -181 31h-24l-150 -710h-69l150 710h-25q-125 0 -168 -28l-266 -355l-70 -327h-69l71 331l-130 397h73l119 -381l70 93q133 178 194 288h475z" />
    <glyph glyph-name="Z_A" horiz-adv-x="998" 
d="M869 0l-36 241h-278l-139 -241h-465l1 4l526 706h-60q-193 0 -302 -28h-2l21 46h436l-1 -4l-525 -706h82q187 0 296 36l398 687h3l114 -741h-69zM565 259h265l-54 365z" />
    <glyph glyph-name="Z_Z" horiz-adv-x="924" 
d="M371 48h1l-26 -48h-394l1 4l526 706h-60q-193 0 -302 -28h-2l21 46h436l-1 -4l-525 -706h73q91 0 135 6q45 6 117 24zM1009 728l-1 -4l-526 -706h74q187 0 311 30h1l-26 -48h-454l1 4l526 706h-60q-89 0 -139 -6q-52 -6 -111 -22h-2l21 46h385z" />
    <glyph glyph-name="f_b" horiz-adv-x="861" 
d="M845 383q0 -85 -41 -179q-41 -93 -114 -154q-73 -62 -160 -62q-90 0 -138 73l-53 -62h-4l162 766q-53 22 -102 22q-125 0 -160 -164l-21 -97h154l-17 -22h-141l-113 -531q-18 -84 -78 -136.5t-151 -64.5l-1 12q61 11 105 60.5t61 126.5l114 533h-76l5 22h75l22 101
q20 92 71.5 139.5t129.5 47.5q65 0 130 -35l62 31h4l-108 -510h9q48 116 111.5 177t136.5 61q61 0 93.5 -41t32.5 -114zM775 375q0 58 -21.5 94.5t-61.5 36.5q-71 3 -152 -116.5t-120 -290.5q36 -95 118 -95q65 0 119 62q54 60 86 150t32 159z" />
    <glyph glyph-name="f_h" horiz-adv-x="854" 
d="M824 417q0 -35 -9 -75l-73 -342h-64l75 349q7 29 7 64q0 93 -68 93q-81 0 -161 -131t-133 -375h-63l162 765q-53 22 -102 22q-125 0 -160 -164l-21 -97h154l-17 -22h-141l-113 -531q-18 -84 -78 -136.5t-151 -64.5l-1 12q61 11 105 60.5t61 126.5l114 533h-76l5 22h75
l22 101q20 92 71.5 139.5t129.5 47.5q65 0 130 -35l62 31h4l-113 -534h9q102 262 253 262q105 0 105 -121z" />
    <glyph glyph-name="f_j" horiz-adv-x="524" 
d="M487 526l27 9h4l-119 -562q-18 -84 -78 -136.5t-151 -64.5l-1 12q62 11 106 60.5t60 126.5l112 533h-237l-113 -531q-18 -84 -78 -136.5t-151 -64.5l-1 12q61 11 105 60.5t61 126.5l114 533h-76l5 22h75l22 101q20 92 70 139.5t123 47.5q66 0 124 -36l-8 -13
q-47 22 -96 22q-116 0 -151 -164l-21 -97h273zM510 633l-45 59l60 47l46 -59z" />
    <glyph glyph-name="f_k" horiz-adv-x="791" 
d="M566 810h4l-172 -810h-63l162 765q-53 22 -102 22q-125 0 -160 -164l-21 -97h154l-17 -22h-141l-113 -531q-18 -84 -78 -136.5t-151 -64.5l-1 12q61 11 105 60.5t61 126.5l114 533h-76l5 22h75l22 101q20 92 71.5 139.5t129.5 47.5q65 0 130 -35zM595 355l-46 -37
l188 -253l-17 -80h-4l-227 310l96 76q117 91 188 155h60v-2q-103 -65 -238 -169z" />
    <glyph glyph-name="f_t" horiz-adv-x="606" 
d="M482 504l-80 -376q-7 -31 -7 -54q0 -53 40 -53q45 0 130 85l11 -10q-45 -51 -91 -79.5t-82 -28.5q-73 0 -73 79q0 24 7 55l81 382h-208l-113 -531q-18 -84 -78 -136.5t-151 -64.5l-1 12q61 11 105 60.5t61 126.5l114 533h-76l5 22h75l22 101q20 92 70 139.5t123 47.5
q72 0 128 -39l-8 -12q-46 24 -100 24q-116 0 -151 -164l-21 -97h204l100 162h4l-35 -162h167l-18 -22h-154z" />
    <glyph glyph-name="k_s" horiz-adv-x="833" 
d="M234 810h4l-172 -810h-63l167 787zM828 484l-16 -37q-27 33 -65.5 55t-79.5 22q-47 0 -77.5 -29t-30.5 -72q0 -27 12 -46q8 -13 19 -24t20 -17l36 -24l33 -22q29 -19 54 -40q50 -39 50 -107t-50 -111.5t-125 -43.5q-87 0 -171 40l9 44q72 -70 159 -70q56 0 92.5 33
t36.5 82q-1 22 -6 37t-18.5 29.5t-24 22.5t-39.5 28l-33 22q-55 35 -78 63t-26 79q0 63 45 101.5t115 38.5q44 0 87.5 -15t71.5 -39zM263 355l-46 -36l188 -254l-16 -80h-5l-227 310l96 76q117 91 188 155h60v-2q-103 -65 -238 -169z" />
    <glyph glyph-name="l_l" horiz-adv-x="369" 
d="M186 0l167 787l65 23h4l-172 -810h-64zM6 0l157 737l64 23h4l-161 -760h-64z" />
    <glyph glyph-name="r_v" horiz-adv-x="727" 
d="M729 526h50q-52 -78 -183 -293l-148 -245h-6l-89 492q-13 7 -39 7q-55 0 -126.5 -129.5t-121.5 -357.5h-63l109 513l65 22h4l-56 -259h6q96 260 219 260q29 0 59 -10l78 -438l93 152q115 191 149 286z" />
    <glyph glyph-name="r_w" horiz-adv-x="980" 
d="M978 526h50q-44 -72 -82 -139l-53 -95q-14 -23 -37 -65l-133 -239h-7l-52 422l-232 -422h-7l-72 492q-13 7 -39 7q-55 0 -126.5 -129.5t-121.5 -357.5h-63l109 513l65 22h4l-56 -259h6q96 260 219 260q29 0 59 -10l63 -429l234 429h7l52 -424l74 133q112 202 139 291z
" />
    <glyph glyph-name="r_y" horiz-adv-x="726" 
d="M724 526h50q-39 -62 -176 -294l-186 -317q-52 -88 -103 -118.5t-122 -30.5l15 48q15 -5 37 -5q41 0 81.5 27t71.5 81l52 88l-90 475q-13 7 -40 7q-55 0 -126.5 -129.5t-121.5 -357.5h-63l109 513l65 22h4l-56 -259h6q96 260 219 260q29 0 59 -10l83 -439l89 151
q112 194 143 288z" />
    <glyph glyph-name="t_t" horiz-adv-x="601" 
d="M477 504l-80 -376q-7 -31 -7 -54q0 -53 40 -53q45 0 130 85l11 -10q-45 -51 -91 -79.5t-82 -28.5q-73 0 -73 79q0 24 7 55l81 382h-210l-79 -376q-7 -32 -7 -56q0 -51 39 -51q42 0 128 83l11 -10q-94 -106 -171 -106q-72 0 -72 80q0 26 6 54l82 382h-74l3 17l70 5
l100 162h4l-35 -162h205l100 162h4l-35 -162h167l-18 -22h-154z" />
    <glyph glyph-name="zero.osf" horiz-adv-x="593" 
d="M45 234q-2 97 36 186.5t108 146.5t154 55q100 0 160.5 -66t60.5 -180q2 -97 -36 -186.5t-108 -146.5t-154 -55q-99 0 -160 66.5t-61 179.5zM493 402q0 97 -39 151.5t-111 54.5q-66 3 -120 -60t-81 -154t-26 -184q0 -97 39.5 -152.5t111.5 -55.5q67 -3 120.5 60.5t80 155
t25.5 184.5z" />
    <glyph glyph-name="one.osf" horiz-adv-x="261" 
d="M262 619h4l-131 -619h-64l106 506q-49 -34 -132 -57l2 12q58 20 115.5 62.5t99.5 95.5z" />
    <glyph glyph-name="two.osf" horiz-adv-x="464" 
d="M55 48h54q162 0 286 20l-33 -68h-389l1 4l68 53q25 19 58 43q94 71 152 121q131 114 131 234q0 58 -32.5 93.5t-88.5 35.5q-99 0 -181 -121l-12 6q37 63 87 108t127 45q76 0 123 -46q49 -46 49 -118q0 -71 -43 -132t-106 -109q-61 -47 -172 -118q-56 -35 -72 -46z" />
    <glyph glyph-name="three.osf" horiz-adv-x="463" 
d="M-42 -69l19 48q63 -93 157 -93q82 0 137 59t55 139q0 73 -50 120q-48 45 -124 53l-2 12l37 9q75 19 129 76q52 55 52 126q0 50 -30 78.5t-82 28.5q-49 0 -94.5 -24t-75.5 -59l-12 6q87 112 202 112q70 0 115.5 -36.5t45.5 -97.5q0 -68 -53.5 -122t-126.5 -79l-1 -2
q57 -20 94.5 -69t37.5 -115q2 -93 -73.5 -163t-177.5 -68q-94 0 -179 61z" />
    <glyph glyph-name="four.osf" horiz-adv-x="486" 
d="M450 140l-22 -48h-92l-45 -210h-64l45 210h-306l-1 13l473 512h9l-101 -477h104zM24 140h258l77 363z" />
    <glyph glyph-name="five.osf" horiz-adv-x="450" 
d="M432 558h-278l-54 -204q133 -10 208.5 -72.5t75.5 -161.5q0 -112 -72.5 -181.5t-182.5 -69.5q-84 0 -175 57l19 42q61 -82 159 -82q84 0 138 59.5t54 149.5q0 87 -69.5 140t-190.5 59l84 316h309z" />
    <glyph glyph-name="six.osf" horiz-adv-x="506" 
d="M39 215q-2 115 52.5 226.5t150 191.5t208.5 107l2 -15q-100 -27 -180.5 -113t-122.5 -199t-40 -228q0 -87 33.5 -135t94.5 -48q75 -2 123 78.5t47 178.5q0 71 -33.5 111t-92.5 40q-52 0 -98 -34l-9 13q59 46 131 46q80 0 126 -52q48 -51 48 -131q2 -106 -73 -186.5
t-174 -77.5q-89 0 -141 60.5t-52 166.5z" />
    <glyph glyph-name="seven.osf" horiz-adv-x="450" 
d="M96 610h414v-4l-406 -724h-69l428 676h-103q-192 0 -298 -24z" />
    <glyph glyph-name="eight.osf" horiz-adv-x="508" 
d="M455 202q0 -90 -70.5 -152t-168.5 -62q-83 0 -140 44.5t-57 122.5q0 77 56 136q55 58 143 84q-97 69 -97 165q0 85 60 142.5t147 57.5q73 0 122 -43t49 -109q0 -68 -51 -122q-51 -53 -124 -78q57 -33 92 -74q39 -42 39 -112zM281 413l28 -16q62 33 97.5 86t35.5 114
q0 58 -32 93.5t-85 35.5q-63 0 -106.5 -49.5t-43.5 -113.5q0 -52 27 -86t79 -64zM400 175q0 40 -20 72q-17 29 -37 46t-57 40l-41 25q-3 2 -7.5 4.5t-6.5 3.5q-70 -29 -112 -87.5t-42 -127.5q0 -68 40.5 -108.5t104.5 -40.5q72 0 125 52.5t53 120.5z" />
    <glyph glyph-name="nine.osf" horiz-adv-x="507" 
d="M73 -130l-2 15q100 27 180.5 113t122.5 199t41 228q0 87 -34 135t-95 48q-74 2 -122 -78.5t-47 -178.5q0 -71 33 -110.5t93 -39.5q54 0 97 34l9 -13q-59 -47 -131 -47q-79 0 -127 51q-47 53 -47 133q-2 106 73 185.5t175 77.5q90 0 141.5 -60.5t51.5 -165.5
q3 -176 -118 -330.5t-294 -195.5z" />
    <glyph glyph-name="zero.zero" horiz-adv-x="619" 
d="M601 460q0 -116 -40 -224t-114 -179q-73 -69 -169 -69q-100 0 -159 75t-59 205q0 115 40 223q41 112 113 179q73 70 170 70q100 0 159 -75.5t59 -204.5zM129 238q0 -7 2 -53l397 380q-25 161 -146 161q-76 0 -135 -77q-56 -76 -88 -190q-30 -114 -30 -221zM533 490
q0 7 -2 53l-397 -381q25 -160 145 -160q77 0 135 76q58 75 88 191q31 112 31 221z" />
    <glyph glyph-name="space.alt" horiz-adv-x="228" 
d="M110 227l-48 62l63 49l48 -62z" />
    <glyph glyph-name="percent.alt" horiz-adv-x="673" 
d="M647 728h18l-589 -728h-33l557 671q-86 -54 -169 -54q-30 0 -58 11v-11q1 -53 -24 -109.5t-68 -94t-88 -35.5q-53 0 -82 31t-29 86q-2 86 55.5 164t130.5 75q65 0 92 -54q22 -45 80 -45q56 0 114 24q58 25 93 69zM354 637q-39 25 -54 72q-14 6 -31 6q-38 2 -73.5 -34.5
t-55.5 -89t-19 -99.5q0 -46 21 -71.5t59 -25.5q55 -4 106 74t49 149q0 3 -2 19zM633 234q1 -54 -24 -110.5t-68 -94t-88 -35.5q-53 0 -82 31t-29 86q-2 86 55.5 164t130.5 75q49 0 77 -31.5t28 -84.5zM616 234q0 45 -22 71t-60 26q-61 3 -108 -72t-45 -150q0 -46 21 -71.5
t59 -25.5q38 -2 75 34.5t59 89.5t21 98z" />
    </font>
</defs>
</svg>
